  0
SECTION
  2
HEADER
  9
$ACADVER
  1
AC1015
  9
$ACADMAINTVER
 70
    20
  9
$DWGCODEPAGE
  3
ANSI_1252
  9
$INSBASE
 10
0.0
 20
0.0
 30
0.0
  9
$EXTMIN
 10
-2.172738491540921
 20
78.50231006621306
 30
0.0
  9
$EXTMAX
 10
57.15636279864812
 20
98.77454141607831
 30
0.0
  9
$LIMMIN
 10
0.0
 20
0.0
  9
$LIMMAX
 10
16.141732
 20
11.299213
  9
$ORTHOMODE
 70
     1
  9
$REGENMODE
 70
     1
  9
$FILLMODE
 70
     1
  9
$QTEXTMODE
 70
     0
  9
$MIRRTEXT
 70
     1
  9
$LTSCALE
 40
0.984252
  9
$ATTMODE
 70
     1
  9
$TEXTSIZE
 40
3.5
  9
$TRACEWID
 40
0.03937
  9
$TEXTSTYLE
  7
STANDARD
  9
$CLAYER
  8
0
  9
$CELTYPE
  6
ByLayer
  9
$CECOLOR
 62
   256
  9
$CELTSCALE
 40
1.0
  9
$DISPSILH
 70
     0
  9
$DIMSCALE
 40
1.0
  9
$DIMASZ
 40
0.25
  9
$DIMEXO
 40
0.003937
  9
$DIMDLI
 40
0.275591
  9
$DIMRND
 40
0.0
  9
$DIMDLE
 40
0.0
  9
$DIMEXE
 40
0.070866
  9
$DIMTP
 40
0.0
  9
$DIMTM
 40
0.0
  9
$DIMTXT
 40
0.25
  9
$DIMCEN
 40
0.09
  9
$DIMTSZ
 40
0.0
  9
$DIMTOL
 70
     0
  9
$DIMLIM
 70
     0
  9
$DIMTIH
 70
     0
  9
$DIMTOH
 70
     0
  9
$DIMSE1
 70
     0
  9
$DIMSE2
 70
     0
  9
$DIMTAD
 70
     1
  9
$DIMZIN
 70
     0
  9
$DIMBLK
  1

  9
$DIMASO
 70
     1
  9
$DIMSHO
 70
     0
  9
$DIMPOST
  1

  9
$DIMAPOST
  1

  9
$DIMALT
 70
     0
  9
$DIMALTD
 70
     2
  9
$DIMALTF
 40
25.4
  9
$DIMLFAC
 40
1.0
  9
$DIMTOFL
 70
     0
  9
$DIMTVP
 40
0.0
  9
$DIMTIX
 70
     0
  9
$DIMSOXD
 70
     0
  9
$DIMSAH
 70
     0
  9
$DIMBLK1
  1

  9
$DIMBLK2
  1

  9
$DIMSTYLE
  2
STANDARD
  9
$DIMCLRD
 70
     0
  9
$DIMCLRE
 70
     0
  9
$DIMCLRT
 70
     0
  9
$DIMTFAC
 40
1.0
  9
$DIMGAP
 40
0.09
  9
$DIMJUST
 70
     0
  9
$DIMSD1
 70
     0
  9
$DIMSD2
 70
     0
  9
$DIMTOLJ
 70
     1
  9
$DIMTZIN
 70
     0
  9
$DIMALTZ
 70
     0
  9
$DIMALTTZ
 70
     0
  9
$DIMUPT
 70
     0
  9
$DIMDEC
 70
     2
  9
$DIMTDEC
 70
     2
  9
$DIMALTU
 70
     2
  9
$DIMALTTD
 70
     2
  9
$DIMTXSTY
  7
STANDARD
  9
$DIMAUNIT
 70
     0
  9
$DIMADEC
 70
     0
  9
$DIMALTRND
 40
0.0
  9
$DIMAZIN
 70
     0
  9
$DIMDSEP
 70
    46
  9
$DIMATFIT
 70
     3
  9
$DIMFRAC
 70
     0
  9
$DIMLDRBLK
  1

  9
$DIMLUNIT
 70
     2
  9
$DIMLWD
 70
    -2
  9
$DIMLWE
 70
    -2
  9
$DIMTMOVE
 70
     0
  9
$LUNITS
 70
     2
  9
$LUPREC
 70
     4
  9
$SKETCHINC
 40
0.1
  9
$FILLETRAD
 40
1.0
  9
$AUNITS
 70
     0
  9
$AUPREC
 70
     0
  9
$MENU
  1
acad
  9
$ELEVATION
 40
0.0
  9
$PELEVATION
 40
0.0
  9
$THICKNESS
 40
0.0
  9
$LIMCHECK
 70
     0
  9
$CHAMFERA
 40
0.0
  9
$CHAMFERB
 40
0.0
  9
$CHAMFERC
 40
0.0
  9
$CHAMFERD
 40
0.0
  9
$SKPOLY
 70
     0
  9
$TDCREATE
 40
2448030.426810995
  9
$TDUCREATE
 40
2448030.593477662
  9
$TDUPDATE
 40
2456161.438325648
  9
$TDUUPDATE
 40
2456161.604992315
  9
$TDINDWG
 40
0.6666931366
  9
$TDUSRTIMER
 40
0.6666867940
  9
$USRTIMER
 70
     1
  9
$ANGBASE
 50
0.0
  9
$ANGDIR
 70
     0
  9
$PDMODE
 70
     0
  9
$PDSIZE
 40
0.0
  9
$PLINEWID
 40
0.0
  9
$SPLFRAME
 70
     0
  9
$SPLINETYPE
 70
     6
  9
$SPLINESEGS
 70
     8
  9
$HANDSEED
  5
A5E
  9
$SURFTAB1
 70
     6
  9
$SURFTAB2
 70
     6
  9
$SURFTYPE
 70
     6
  9
$SURFU
 70
     6
  9
$SURFV
 70
     6
  9
$UCSBASE
  2

  9
$UCSNAME
  2

  9
$UCSORG
 10
0.0
 20
0.0
 30
0.0
  9
$UCSXDIR
 10
1.0
 20
0.0
 30
0.0
  9
$UCSYDIR
 10
0.0
 20
1.0
 30
0.0
  9
$UCSORTHOREF
  2

  9
$UCSORTHOVIEW
 70
     0
  9
$UCSORGTOP
 10
0.0
 20
0.0
 30
0.0
  9
$UCSORGBOTTOM
 10
0.0
 20
0.0
 30
0.0
  9
$UCSORGLEFT
 10
0.0
 20
0.0
 30
0.0
  9
$UCSORGRIGHT
 10
0.0
 20
0.0
 30
0.0
  9
$UCSORGFRONT
 10
0.0
 20
0.0
 30
0.0
  9
$UCSORGBACK
 10
0.0
 20
0.0
 30
0.0
  9
$PUCSBASE
  2

  9
$PUCSNAME
  2

  9
$PUCSORG
 10
0.0
 20
0.0
 30
0.0
  9
$PUCSXDIR
 10
1.0
 20
0.0
 30
0.0
  9
$PUCSYDIR
 10
0.0
 20
1.0
 30
0.0
  9
$PUCSORTHOREF
  2

  9
$PUCSORTHOVIEW
 70
     0
  9
$PUCSORGTOP
 10
0.0
 20
0.0
 30
0.0
  9
$PUCSORGBOTTOM
 10
0.0
 20
0.0
 30
0.0
  9
$PUCSORGLEFT
 10
0.0
 20
0.0
 30
0.0
  9
$PUCSORGRIGHT
 10
0.0
 20
0.0
 30
0.0
  9
$PUCSORGFRONT
 10
0.0
 20
0.0
 30
0.0
  9
$PUCSORGBACK
 10
0.0
 20
0.0
 30
0.0
  9
$USERI1
 70
     0
  9
$USERI2
 70
     0
  9
$USERI3
 70
     0
  9
$USERI4
 70
     0
  9
$USERI5
 70
     0
  9
$USERR1
 40
0.0
  9
$USERR2
 40
0.0
  9
$USERR3
 40
0.0
  9
$USERR4
 40
0.0
  9
$USERR5
 40
0.0
  9
$WORLDVIEW
 70
     1
  9
$SHADEDGE
 70
     3
  9
$SHADEDIF
 70
    70
  9
$TILEMODE
 70
     1
  9
$MAXACTVP
 70
    64
  9
$PINSBASE
 10
0.0
 20
0.0
 30
0.0
  9
$PLIMCHECK
 70
     0
  9
$PEXTMIN
 10
1.000000000000000E+20
 20
1.000000000000000E+20
 30
1.000000000000000E+20
  9
$PEXTMAX
 10
-1.000000000000000E+20
 20
-1.000000000000000E+20
 30
-1.000000000000000E+20
  9
$PLIMMIN
 10
0.0
 20
0.0
  9
$PLIMMAX
 10
12.0
 20
9.0
  9
$UNITMODE
 70
     0
  9
$VISRETAIN
 70
     1
  9
$PLINEGEN
 70
     0
  9
$PSLTSCALE
 70
     1
  9
$TREEDEPTH
 70
  3020
  9
$CMLSTYLE
  2
Standard
  9
$CMLJUST
 70
     0
  9
$CMLSCALE
 40
1.0
  9
$PROXYGRAPHICS
 70
     1
  9
$MEASUREMENT
 70
     0
  9
$CELWEIGHT
370
    -1
  9
$ENDCAPS
280
     0
  9
$JOINSTYLE
280
     0
  9
$LWDISPLAY
290
     0
  9
$INSUNITS
 70
     0
  9
$HYPERLINKBASE
  1

  9
$STYLESHEET
  1

  9
$XEDIT
290
     1
  9
$CEPSNTYPE
380
     0
  9
$PSTYLEMODE
290
     1
  9
$FINGERPRINTGUID
  2
{4853608B-8290-4D53-90BD-8B74B5DE7865}
  9
$VERSIONGUID
  2
{A817EA7A-F26A-4004-8B01-BD474902A0F4}
  9
$EXTNAMES
290
     1
  9
$PSVPSCALE
 40
0.0
  9
$OLESTARTUP
290
     0
  0
ENDSEC
  0
SECTION
  2
CLASSES
  0
CLASS
  1
ACDBDICTIONARYWDFLT
  2
AcDbDictionaryWithDefault
  3
ObjectDBX Classes
 90
        0
280
     0
281
     0
  0
CLASS
  1
MATERIAL
  2
AcDbMaterial
  3
ObjectDBX Classes
 90
     1153
280
     0
281
     0
  0
CLASS
  1
VISUALSTYLE
  2
AcDbVisualStyle
  3
ObjectDBX Classes
 90
     4095
280
     0
281
     0
  0
CLASS
  1
SCALE
  2
AcDbScale
  3
ObjectDBX Classes
 90
     1153
280
     0
281
     0
  0
CLASS
  1
TABLESTYLE
  2
AcDbTableStyle
  3
ObjectDBX Classes
 90
     4095
280
     0
281
     0
  0
CLASS
  1
MLEADERSTYLE
  2
AcDbMLeaderStyle
  3
ACDB_MLEADERSTYLE_CLASS
 90
     4095
280
     0
281
     0
  0
CLASS
  1
DICTIONARYVAR
  2
AcDbDictionaryVar
  3
ObjectDBX Classes
 90
        0
280
     0
281
     0
  0
CLASS
  1
CELLSTYLEMAP
  2
AcDbCellStyleMap
  3
ObjectDBX Classes
 90
     1152
280
     0
281
     0
  0
CLASS
  1
ACDBPLACEHOLDER
  2
AcDbPlaceHolder
  3
ObjectDBX Classes
 90
        0
280
     0
281
     0
  0
CLASS
  1
LAYOUT
  2
AcDbLayout
  3
ObjectDBX Classes
 90
        0
280
     0
281
     0
  0
CLASS
  1
SORTENTSTABLE
  2
AcDbSortentsTable
  3
ObjectDBX Classes
 90
        0
280
     0
281
     0
  0
ENDSEC
  0
SECTION
  2
TABLES
  0
TABLE
  2
VPORT
  5
181
330
0
100
AcDbSymbolTable
 70
     1
  0
VPORT
  5
9B3
330
181
100
AcDbSymbolTableRecord
100
AcDbViewportTableRecord
  2
*Active
 70
     0
 10
0.0
 20
0.0
 11
1.0
 21
1.0
 12
28.32306258474604
 22
89.27255172906011
 13
0.0
 23
0.0
 14
1.0
 24
1.0
 15
0.0
 25
0.0
 16
0.0
 26
0.0
 36
1.0
 17
0.0
 27
0.0
 37
0.0
 40
29.45514555720797
 41
2.457685664939551
 42
50.0
 43
0.0
 44
0.0
 50
0.0
 51
0.0
 71
     0
 72
   100
 73
     1
 74
     1
 75
     0
 76
     0
 77
     0
 78
     0
281
     0
 65
     1
110
0.0
120
0.0
130
0.0
111
1.0
121
0.0
131
0.0
112
0.0
122
1.0
132
0.0
 79
     0
146
0.0
1001
ACAD_NAV_VCDISPLAY
1070
     3
  0
ENDTAB
  0
TABLE
  2
LTYPE
  5
17E
330
0
100
AcDbSymbolTable
 70
    11
  0
LTYPE
  5
1DB
330
17E
100
AcDbSymbolTableRecord
100
AcDbLinetypeTableRecord
  2
ByBlock
 70
     0
  3

 72
    65
 73
     0
 40
0.0
  0
LTYPE
  5
1DC
330
17E
100
AcDbSymbolTableRecord
100
AcDbLinetypeTableRecord
  2
ByLayer
 70
     0
  3

 72
    65
 73
     0
 40
0.0
  0
LTYPE
  5
1DD
330
17E
100
AcDbSymbolTableRecord
100
AcDbLinetypeTableRecord
  2
CONTINUOUS
 70
     0
  3
Solid line
 72
    65
 73
     0
 40
0.0
  0
LTYPE
  5
1F2
330
17E
100
AcDbSymbolTableRecord
100
AcDbLinetypeTableRecord
  2
PHANTOM
 70
     0
  3
______  __  __  ______  __  __  ______  __  __ 
 72
    65
 73
     6
 40
2.5
 49
1.25
 74
     0
 49
-0.25
 74
     0
 49
0.25
 74
     0
 49
-0.25
 74
     0
 49
0.25
 74
     0
 49
-0.25
 74
     0
  0
LTYPE
  5
1F3
330
17E
100
AcDbSymbolTableRecord
100
AcDbLinetypeTableRecord
  2
PHANTOM2
 70
     0
  3
___ _ _ ___ _ _ ___ _ _ ___ _ _ ___ _ _ ___ _ _
 72
    65
 73
     6
 40
1.25
 49
0.625
 74
     0
 49
-0.125
 74
     0
 49
0.125
 74
     0
 49
-0.125
 74
     0
 49
0.125
 74
     0
 49
-0.125
 74
     0
  0
LTYPE
  5
1F4
330
17E
100
AcDbSymbolTableRecord
100
AcDbLinetypeTableRecord
  2
PHANTOMX2
 70
     0
  3
____________    ____    ____    ____________   
 72
    65
 73
     6
 40
5.0
 49
2.5
 74
     0
 49
-0.5
 74
     0
 49
0.5
 74
     0
 49
-0.5
 74
     0
 49
0.5
 74
     0
 49
-0.5
 74
     0
  0
LTYPE
  5
1F5
330
17E
100
AcDbSymbolTableRecord
100
AcDbLinetypeTableRecord
  2
BORDER
 70
     0
  3
__ __ . __ __ . __ __ . __ __ . __ __ . __ __ .
 72
    65
 73
     6
 40
44.45
 49
12.7
 74
     0
 49
-6.349999999999997
 74
     0
 49
12.7
 74
     0
 49
-6.349999999999997
 74
     0
 49
0.0
 74
     0
 49
-6.349999999999997
 74
     0
  0
LTYPE
  5
1F6
330
17E
100
AcDbSymbolTableRecord
100
AcDbLinetypeTableRecord
  2
CENTER
 70
     0
  3
____ _ ____ _ ____ _ ____ _ ____ _ ____ _ ____ 
 72
    65
 73
     4
 40
50.8
 49
31.75
 74
     0
 49
-6.349999999999997
 74
     0
 49
6.349999999999997
 74
     0
 49
-6.349999999999997
 74
     0
  0
LTYPE
  5
1F7
330
17E
100
AcDbSymbolTableRecord
100
AcDbLinetypeTableRecord
  2
DASHDOT
 70
     0
  3
__ . __ . __ . __ . __ . __ . __ . __ . __ . __
 72
    65
 73
     4
 40
25.4
 49
12.7
 74
     0
 49
-6.349999999999997
 74
     0
 49
0.0
 74
     0
 49
-6.349999999999997
 74
     0
  0
LTYPE
  5
1F8
330
17E
100
AcDbSymbolTableRecord
100
AcDbLinetypeTableRecord
  2
DASHED
 70
     0
  3
__ __ __ __ __ __ __ __ __ __ __ __ __ __ __ __
 72
    65
 73
     2
 40
19.05
 49
12.7
 74
     0
 49
-6.349999999999997
 74
     0
  0
LTYPE
  5
1F9
330
17E
100
AcDbSymbolTableRecord
100
AcDbLinetypeTableRecord
  2
DIVIDE
 70
     0
  3
____ . . ____ . . ____ . . ____ . . ____ . . __
 72
    65
 73
     6
 40
31.75
 49
12.7
 74
     0
 49
-6.349999999999997
 74
     0
 49
0.0
 74
     0
 49
-6.349999999999997
 74
     0
 49
0.0
 74
     0
 49
-6.349999999999997
 74
     0
  0
LTYPE
  5
1FA
330
17E
100
AcDbSymbolTableRecord
100
AcDbLinetypeTableRecord
  2
DOT
 70
     0
  3
. . . . . . . . . . . . . . . . . . . . . . . .
 72
    65
 73
     2
 40
6.349999999999997
 49
0.0
 74
     0
 49
-6.349999999999997
 74
     0
  0
LTYPE
  5
1FB
330
17E
100
AcDbSymbolTableRecord
100
AcDbLinetypeTableRecord
  2
HIDDEN
 70
     0
  3
__ __ __ __ __ __ __ __ __ __ __ __ __ __ __ __
 72
    65
 73
     2
 40
9.525
 49
6.349999999999997
 74
     0
 49
-3.174999999999998
 74
     0
  0
ENDTAB
  0
TABLE
  2
LAYER
  5
17B
102
{ACAD_XDICTIONARY
360
9EA
102
}
330
0
100
AcDbSymbolTable
 70
    17
  0
LAYER
  5
1D5
102
{ACAD_XDICTIONARY
360
222
102
}
330
17B
100
AcDbSymbolTableRecord
100
AcDbLayerTableRecord
  2
0
 70
     0
 62
     7
  6
CONTINUOUS
370
    -3
390
188
  0
LAYER
  5
1FC
102
{ACAD_XDICTIONARY
360
224
102
}
330
17B
100
AcDbSymbolTableRecord
100
AcDbLayerTableRecord
  2
DIM-NEW
 70
     0
 62
     7
  6
CONTINUOUS
370
    -3
390
188
  0
LAYER
  5
1FD
102
{ACAD_XDICTIONARY
360
226
102
}
330
17B
100
AcDbSymbolTableRecord
100
AcDbLayerTableRecord
  2
GLASS_RET_LEFT
 70
     0
 62
     7
  6
CONTINUOUS
370
    -3
390
188
  0
LAYER
  5
1FE
102
{ACAD_XDICTIONARY
360
228
102
}
330
17B
100
AcDbSymbolTableRecord
100
AcDbLayerTableRecord
  2
SIDE_LEFT
 70
     0
 62
     7
  6
CONTINUOUS
370
    -3
390
188
  0
LAYER
  5
1FF
102
{ACAD_XDICTIONARY
360
22A
102
}
330
17B
100
AcDbSymbolTableRecord
100
AcDbLayerTableRecord
  2
1
 70
     0
 62
     7
  6
CONTINUOUS
370
    -3
390
188
  0
LAYER
  5
200
102
{ACAD_XDICTIONARY
360
22C
102
}
330
17B
100
AcDbSymbolTableRecord
100
AcDbLayerTableRecord
  2
SIDE_RIGHT
 70
     0
 62
     7
  6
CONTINUOUS
370
    -3
390
188
  0
LAYER
  5
201
330
17B
100
AcDbSymbolTableRecord
100
AcDbLayerTableRecord
  2
DEFPOINTS
 70
     0
 62
     7
  6
CONTINUOUS
290
     0
370
    -3
390
188
  0
LAYER
  5
202
102
{ACAD_XDICTIONARY
360
22E
102
}
330
17B
100
AcDbSymbolTableRecord
100
AcDbLayerTableRecord
  2
MISC_BLOCKS
 70
     0
 62
     7
  6
CONTINUOUS
370
    -3
390
188
  0
LAYER
  5
203
102
{ACAD_XDICTIONARY
360
230
102
}
330
17B
100
AcDbSymbolTableRecord
100
AcDbLayerTableRecord
  2
TITLE_BLOCK
 70
     0
 62
     7
  6
CONTINUOUS
370
    -3
390
188
  0
LAYER
  5
204
102
{ACAD_XDICTIONARY
360
232
102
}
330
17B
100
AcDbSymbolTableRecord
100
AcDbLayerTableRecord
  2
DIM
 70
     0
 62
     7
  6
CONTINUOUS
370
    -3
390
188
  0
LAYER
  5
205
102
{ACAD_XDICTIONARY
360
234
102
}
330
17B
100
AcDbSymbolTableRecord
100
AcDbLayerTableRecord
  2
TXT
 70
     0
 62
     7
  6
CONTINUOUS
370
    -3
390
188
  0
LAYER
  5
206
102
{ACAD_XDICTIONARY
360
236
102
}
330
17B
100
AcDbSymbolTableRecord
100
AcDbLayerTableRecord
  2
TITLE
 70
     0
 62
     7
  6
CONTINUOUS
370
    -3
390
188
  0
LAYER
  5
207
102
{ACAD_XDICTIONARY
360
238
102
}
330
17B
100
AcDbSymbolTableRecord
100
AcDbLayerTableRecord
  2
BORDER
 70
     0
 62
     7
  6
CONTINUOUS
370
    -3
390
188
  0
LAYER
  5
208
102
{ACAD_XDICTIONARY
360
23A
102
}
330
17B
100
AcDbSymbolTableRecord
100
AcDbLayerTableRecord
  2
DIMENSION
 70
     0
 62
     7
  6
CONTINUOUS
370
    -3
390
188
  0
LAYER
  5
209
102
{ACAD_XDICTIONARY
360
23C
102
}
330
17B
100
AcDbSymbolTableRecord
100
AcDbLayerTableRecord
  2
CONSTRUCTION
 70
     0
 62
     7
  6
CONTINUOUS
370
    -3
390
188
  0
LAYER
  5
20A
102
{ACAD_XDICTIONARY
360
23E
102
}
330
17B
100
AcDbSymbolTableRecord
100
AcDbLayerTableRecord
  2
CONTINUOUS
 70
     0
 62
     7
  6
CONTINUOUS
370
    -3
390
188
  0
LAYER
  5
20B
102
{ACAD_XDICTIONARY
360
240
102
}
330
17B
100
AcDbSymbolTableRecord
100
AcDbLayerTableRecord
  2
LAYER1
 70
     0
 62
     7
  6
CONTINUOUS
370
    -3
390
188
  0
ENDTAB
  0
TABLE
  2
STYLE
  5
17C
330
0
100
AcDbSymbolTable
 70
     7
  0
STYLE
  5
1D6
330
17C
100
AcDbSymbolTableRecord
100
AcDbTextStyleTableRecord
  2
STANDARD
 70
     0
 40
0.0
 41
1.0
 50
0.0
 71
     0
 42
3.5
  3
txt.shx
  4

  0
STYLE
  5
1DA
330
17C
100
AcDbSymbolTableRecord
100
AcDbTextStyleTableRecord
  2
ANNOTATIVE
 70
     0
 40
0.0
 41
1.0
 50
0.0
 71
     0
 42
0.2
  3
txt
  4

1001
ACADANNOTATIVE
1000
AnnotativeData
1002
{
1070
     1
1070
     1
1002
}
  0
STYLE
  5
20C
330
17C
100
AcDbSymbolTableRecord
100
AcDbTextStyleTableRecord
  2
ROMANS
 70
     0
 40
0.0
 41
1.0
 50
0.0
 71
     0
 42
3.5
  3
romans
  4

  0
STYLE
  5
20D
330
17C
100
AcDbSymbolTableRecord
100
AcDbTextStyleTableRecord
  2
ROMANC
 70
     0
 40
0.0
 41
1.0
 50
0.0
 71
     0
 42
3.5
  3
romanc
  4

  0
STYLE
  5
20E
330
17C
100
AcDbSymbolTableRecord
100
AcDbTextStyleTableRecord
  2
ROMAND
 70
     0
 40
0.0
 41
1.0
 50
0.0
 71
     0
 42
3.5
  3
romand
  4

  0
STYLE
  5
20F
330
17C
100
AcDbSymbolTableRecord
100
AcDbTextStyleTableRecord
  2
SCRIPTC
 70
     0
 40
0.0
 41
1.0
 50
0.0
 71
     0
 42
3.5
  3
scriptc
  4

  0
STYLE
  5
210
330
17C
100
AcDbSymbolTableRecord
100
AcDbTextStyleTableRecord
  2
TXT
 70
     0
 40
0.0
 41
1.0
 50
0.0
 71
     0
 42
3.5
  3
txt
  4

  0
ENDTAB
  0
TABLE
  2
VIEW
  5
17F
330
0
100
AcDbSymbolTable
 70
     0
  0
ENDTAB
  0
TABLE
  2
UCS
  5
180
330
0
100
AcDbSymbolTable
 70
     0
  0
ENDTAB
  0
TABLE
  2
APPID
  5
182
330
0
100
AcDbSymbolTable
 70
     5
  0
APPID
  5
1D7
330
182
100
AcDbSymbolTableRecord
100
AcDbRegAppTableRecord
  2
ACAD
 70
     0
  0
APPID
  5
1DE
330
182
100
AcDbSymbolTableRecord
100
AcDbRegAppTableRecord
  2
ACADANNOTATIVE
 70
     0
  0
APPID
  5
1E8
330
182
100
AcDbSymbolTableRecord
100
AcDbRegAppTableRecord
  2
ACAD_MLEADERVER
 70
     0
  0
APPID
  5
211
330
182
100
AcDbSymbolTableRecord
100
AcDbRegAppTableRecord
  2
ACAD_EXEMPT_FROM_CAD_STANDARDS
 70
     0
  0
APPID
  5
9D3
330
182
100
AcDbSymbolTableRecord
100
AcDbRegAppTableRecord
  2
ACAD_NAV_VCDISPLAY
 70
     0
  0
ENDTAB
  0
TABLE
  2
DIMSTYLE
  5
183
330
0
100
AcDbSymbolTable
 70
     2
100
AcDbDimStyleTable
 71
     1
340
1D8
  0
DIMSTYLE
105
1D8
102
{ACAD_REACTORS
330
8D8
330
8B9
330
8AC
330
89F
330
892
330
885
330
878
330
86B
330
85E
330
851
330
93F
330
94F
330
A0D
102
}
330
183
100
AcDbSymbolTableRecord
100
AcDbDimStyleTableRecord
  2
STANDARD
 70
     0
279
     2
340
1D6
  0
DIMSTYLE
105
1D9
330
183
100
AcDbSymbolTableRecord
100
AcDbDimStyleTableRecord
  2
ANNOTATIVE
 70
     0
279
     2
340
1D6
1001
ACADANNOTATIVE
1000
AnnotativeData
1002
{
1070
     1
1070
     1
1002
}
  0
ENDTAB
  0
TABLE
  2
BLOCK_RECORD
  5
17A
330
0
100
AcDbSymbolTable
 70
    15
  0
BLOCK_RECORD
  5
1ED
102
{ACAD_XDICTIONARY
360
9C8
102
}
330
17A
100
AcDbSymbolTableRecord
100
AcDbBlockTableRecord
  2
*Model_Space
340
1F0
  0
BLOCK_RECORD
  5
1E9
330
17A
100
AcDbSymbolTableRecord
100
AcDbBlockTableRecord
  2
*Paper_Space
340
1EC
  0
BLOCK_RECORD
  5
217
330
17A
100
AcDbSymbolTableRecord
100
AcDbBlockTableRecord
  2
$MODEL_SPACE
340
0
  0
BLOCK_RECORD
  5
219
330
17A
100
AcDbSymbolTableRecord
100
AcDbBlockTableRecord
  2
$PAPER_SPACE
340
0
  0
BLOCK_RECORD
  5
852
330
17A
100
AcDbSymbolTableRecord
100
AcDbBlockTableRecord
  2
*D2
340
0
  0
BLOCK_RECORD
  5
85F
330
17A
100
AcDbSymbolTableRecord
100
AcDbBlockTableRecord
  2
*D3
340
0
  0
BLOCK_RECORD
  5
86C
330
17A
100
AcDbSymbolTableRecord
100
AcDbBlockTableRecord
  2
*D4
340
0
  0
BLOCK_RECORD
  5
879
330
17A
100
AcDbSymbolTableRecord
100
AcDbBlockTableRecord
  2
*D5
340
0
  0
BLOCK_RECORD
  5
886
330
17A
100
AcDbSymbolTableRecord
100
AcDbBlockTableRecord
  2
*D6
340
0
  0
BLOCK_RECORD
  5
893
330
17A
100
AcDbSymbolTableRecord
100
AcDbBlockTableRecord
  2
*D7
340
0
  0
BLOCK_RECORD
  5
8A0
330
17A
100
AcDbSymbolTableRecord
100
AcDbBlockTableRecord
  2
*D8
340
0
  0
BLOCK_RECORD
  5
8AD
330
17A
100
AcDbSymbolTableRecord
100
AcDbBlockTableRecord
  2
*D9
340
0
  0
BLOCK_RECORD
  5
8BA
330
17A
100
AcDbSymbolTableRecord
100
AcDbBlockTableRecord
  2
*D10
340
0
  0
BLOCK_RECORD
  5
8D9
330
17A
100
AcDbSymbolTableRecord
100
AcDbBlockTableRecord
  2
*D11
340
0
  0
BLOCK_RECORD
  5
940
330
17A
100
AcDbSymbolTableRecord
100
AcDbBlockTableRecord
  2
*D12
340
0
  0
BLOCK_RECORD
  5
950
330
17A
100
AcDbSymbolTableRecord
100
AcDbBlockTableRecord
  2
*D13
340
0
  0
BLOCK_RECORD
  5
A0E
330
17A
100
AcDbSymbolTableRecord
100
AcDbBlockTableRecord
  2
*D14
340
0
  0
ENDTAB
  0
ENDSEC
  0
SECTION
  2
BLOCKS
  0
BLOCK
  5
1EE
330
1ED
100
AcDbEntity
  8
0
100
AcDbBlockBegin
  2
*Model_Space
 70
     0
 10
0.0
 20
0.0
 30
0.0
  3
*Model_Space
  1

  0
ENDBLK
  5
1EF
330
1ED
100
AcDbEntity
  8
0
100
AcDbBlockEnd
  0
BLOCK
  5
1EA
330
1E9
100
AcDbEntity
 67
     1
  8
0
100
AcDbBlockBegin
  2
*Paper_Space
 70
     0
 10
0.0
 20
0.0
 30
0.0
  3
*Paper_Space
  1

  0
ENDBLK
  5
1EB
330
1E9
100
AcDbEntity
 67
     1
  8
0
100
AcDbBlockEnd
  0
BLOCK
  5
218
330
217
100
AcDbEntity
  8
0
100
AcDbBlockBegin
  2
$MODEL_SPACE
 70
     0
 10
0.0
 20
0.0
 30
0.0
  3
$MODEL_SPACE
  1

  0
ENDBLK
  5
76
330
217
100
AcDbEntity
  8
0
100
AcDbBlockEnd
  0
BLOCK
  5
21A
330
219
100
AcDbEntity
  8
0
100
AcDbBlockBegin
  2
$PAPER_SPACE
 70
     0
 10
0.0
 20
0.0
 30
0.0
  3
$PAPER_SPACE
  1

  0
ENDBLK
  5
72
330
219
100
AcDbEntity
  8
0
100
AcDbBlockEnd
  0
BLOCK
  5
85C
330
852
100
AcDbEntity
  8
0
100
AcDbBlockBegin
  2
*D2
 70
     1
 10
0.0
 20
0.0
 30
0.0
  3
*D2
  1

  0
LINE
  5
9DE
330
852
100
AcDbEntity
  8
0
 62
     0
370
    -2
100
AcDbLine
 10
4.065685106553075
 20
89.42604552812989
 30
0.0
 11
4.065685106553075
 21
94.24269193081348
 31
0.0
  0
LINE
  5
9DF
330
852
100
AcDbEntity
  8
0
 62
     0
370
    -2
100
AcDbLine
 10
10.07018510645307
 20
86.67604552812989
 30
0.0
 11
10.07018510645307
 21
94.24269193081348
 31
0.0
  0
LINE
  5
9E0
330
852
100
AcDbEntity
  8
0
 62
     0
370
    -2
100
AcDbLine
 10
4.315685106553075
 20
94.17182593081347
 30
0.0
 11
9.820185106453074
 21
94.17182593081347
 31
0.0
  0
SOLID
  5
9E1
330
852
100
AcDbEntity
  8
0
 62
     0
100
AcDbTrace
 10
4.315685106553075
 20
94.21349259748016
 30
0.0
 11
4.315685106553075
 21
94.13015926414681
 31
0.0
 12
4.065685106553075
 22
94.17182593081347
 32
0.0
 13
4.065685106553075
 23
94.17182593081347
 33
0.0
  0
SOLID
  5
9E2
330
852
100
AcDbEntity
  8
0
 62
     0
100
AcDbTrace
 10
9.820185106453074
 20
94.21349259748016
 30
0.0
 11
9.820185106453074
 21
94.13015926414681
 31
0.0
 12
10.07018510645307
 22
94.17182593081347
 32
0.0
 13
10.07018510645307
 23
94.17182593081347
 33
0.0
  0
MTEXT
  5
9E3
330
852
100
AcDbEntity
  8
0
 62
     0
100
AcDbMText
 10
7.067935106503075
 20
94.38682593081349
 30
0.0
 40
0.25
 41
0.0
 71
     5
 72
     1
  1
\A1;6.00
 73
     1
 44
1.0
1001
ACAD
1000
MTEXTBEGIN
1070
    73
1070
     1
1070
    44
1040
1.0
1070
    74
1070
     0
1000
MTEXTEND
  0
POINT
  5
9E4
330
852
100
AcDbEntity
  8
DEFPOINTS
 62
     0
100
AcDbPoint
 10
4.065685106553075
 20
89.42210852812989
 30
0.0
  0
POINT
  5
9E5
330
852
100
AcDbEntity
  8
DEFPOINTS
 62
     0
100
AcDbPoint
 10
10.07018510645307
 20
86.6721085281299
 30
0.0
  0
POINT
  5
9E6
330
852
100
AcDbEntity
  8
DEFPOINTS
 62
     0
100
AcDbPoint
 10
10.07018510645307
 20
94.17182593081347
 30
0.0
  0
ENDBLK
  5
85D
330
852
100
AcDbEntity
  8
0
100
AcDbBlockEnd
  0
BLOCK
  5
869
330
85F
100
AcDbEntity
  8
0
100
AcDbBlockBegin
  2
*D3
 70
     1
 10
0.0
 20
0.0
 30
0.0
  3
*D3
  1

  0
LINE
  5
92D
330
85F
100
AcDbEntity
  8
0
 62
     0
370
    -2
100
AcDbLine
 10
20.70274089603224
 20
91.4007955281299
 30
0.0
 11
20.70274089603224
 21
94.36430479158147
 31
0.0
  0
LINE
  5
92E
330
85F
100
AcDbEntity
  8
0
 62
     0
370
    -2
100
AcDbLine
 10
33.62774089603226
 20
91.40079552812988
 30
0.0
 11
33.62774089603226
 21
94.36430479158147
 31
0.0
  0
LINE
  5
92F
330
85F
100
AcDbEntity
  8
0
 62
     0
370
    -2
100
AcDbLine
 10
20.95274089603224
 20
94.2934387915815
 30
0.0
 11
33.37774089603225
 21
94.2934387915815
 31
0.0
  0
SOLID
  5
930
330
85F
100
AcDbEntity
  8
0
 62
     0
100
AcDbTrace
 10
20.95274089603224
 20
94.33510545824814
 30
0.0
 11
20.95274089603224
 21
94.2517721249148
 31
0.0
 12
20.70274089603224
 22
94.2934387915815
 32
0.0
 13
20.70274089603224
 23
94.2934387915815
 33
0.0
  0
SOLID
  5
931
330
85F
100
AcDbEntity
  8
0
 62
     0
100
AcDbTrace
 10
33.37774089603225
 20
94.33510545824814
 30
0.0
 11
33.37774089603225
 21
94.2517721249148
 31
0.0
 12
33.62774089603226
 22
94.2934387915815
 32
0.0
 13
33.62774089603226
 23
94.2934387915815
 33
0.0
  0
MTEXT
  5
932
330
85F
100
AcDbEntity
  8
0
 62
     0
100
AcDbMText
 10
27.16524089603225
 20
94.50843879158147
 30
0.0
 40
0.25
 41
0.0
 71
     5
 72
     1
  1
\A1;12.93
 73
     1
 44
1.0
1001
ACAD
1000
MTEXTBEGIN
1070
    73
1070
     1
1070
    44
1040
1.0
1070
    74
1070
     0
1000
MTEXTEND
  0
POINT
  5
933
330
85F
100
AcDbEntity
  8
DEFPOINTS
 62
     0
100
AcDbPoint
 10
20.70274089603224
 20
91.39685852812993
 30
0.0
  0
POINT
  5
934
330
85F
100
AcDbEntity
  8
DEFPOINTS
 62
     0
100
AcDbPoint
 10
33.62774089603226
 20
91.39685852812988
 30
0.0
  0
POINT
  5
935
330
85F
100
AcDbEntity
  8
DEFPOINTS
 62
     0
100
AcDbPoint
 10
33.62774089603226
 20
94.2934387915815
 30
0.0
  0
ENDBLK
  5
86A
330
85F
100
AcDbEntity
  8
0
100
AcDbBlockEnd
  0
BLOCK
  5
876
330
86C
100
AcDbEntity
  8
0
100
AcDbBlockBegin
  2
*D4
 70
     1
 10
0.0
 20
0.0
 30
0.0
  3
*D4
  1

  0
LINE
  5
924
330
86C
100
AcDbEntity
  8
0
 62
     0
370
    -2
100
AcDbLine
 10
46.10636279864809
 20
84.42604552812991
 30
0.0
 11
46.10636279864809
 21
94.93852744898495
 31
0.0
  0
LINE
  5
925
330
86C
100
AcDbEntity
  8
0
 62
     0
370
    -2
100
AcDbLine
 10
57.15636279864812
 20
85.1882955281299
 30
0.0
 11
57.15636279864812
 21
94.93852744898495
 31
0.0
  0
LINE
  5
926
330
86C
100
AcDbEntity
  8
0
 62
     0
370
    -2
100
AcDbLine
 10
46.35636279864811
 20
94.86766144898494
 30
0.0
 11
56.90636279864811
 21
94.86766144898494
 31
0.0
  0
SOLID
  5
927
330
86C
100
AcDbEntity
  8
0
 62
     0
100
AcDbTrace
 10
46.35636279864811
 20
94.90932811565164
 30
0.0
 11
46.35636279864811
 21
94.82599478231829
 31
0.0
 12
46.10636279864809
 22
94.86766144898494
 32
0.0
 13
46.10636279864809
 23
94.86766144898494
 33
0.0
  0
SOLID
  5
928
330
86C
100
AcDbEntity
  8
0
 62
     0
100
AcDbTrace
 10
56.90636279864811
 20
94.90932811565164
 30
0.0
 11
56.90636279864811
 21
94.82599478231829
 31
0.0
 12
57.15636279864812
 22
94.86766144898494
 32
0.0
 13
57.15636279864812
 23
94.86766144898494
 33
0.0
  0
MTEXT
  5
929
330
86C
100
AcDbEntity
  8
0
 62
     0
100
AcDbMText
 10
51.63136279864811
 20
95.08266144898495
 30
0.0
 40
0.25
 41
0.0
 71
     5
 72
     1
  1
\A1;11.05
 73
     1
 44
1.0
1001
ACAD
1000
MTEXTBEGIN
1070
    73
1070
     1
1070
    44
1040
1.0
1070
    74
1070
     0
1000
MTEXTEND
  0
POINT
  5
92A
330
86C
100
AcDbEntity
  8
DEFPOINTS
 62
     0
100
AcDbPoint
 10
46.10636279864809
 20
84.42210852812989
 30
0.0
  0
POINT
  5
92B
330
86C
100
AcDbEntity
  8
DEFPOINTS
 62
     0
100
AcDbPoint
 10
57.15636279864812
 20
85.1843585281299
 30
0.0
  0
POINT
  5
92C
330
86C
100
AcDbEntity
  8
DEFPOINTS
 62
     0
100
AcDbPoint
 10
57.15636279864812
 20
94.86766144898494
 30
0.0
  0
ENDBLK
  5
877
330
86C
100
AcDbEntity
  8
0
100
AcDbBlockEnd
  0
BLOCK
  5
883
330
879
100
AcDbEntity
  8
0
100
AcDbBlockBegin
  2
*D5
 70
     1
 10
0.0
 20
0.0
 30
0.0
  3
*D5
  1

  0
LINE
  5
91B
330
879
100
AcDbEntity
  8
0
 62
     0
370
    -2
100
AcDbLine
 10
4.061748106553076
 20
89.42210852812989
 30
0.0
 11
1.645295032615929
 21
89.42210852812989
 31
0.0
  0
LINE
  5
91C
330
879
100
AcDbEntity
  8
0
 62
     0
370
    -2
100
AcDbLine
 10
4.061748106553076
 20
79.4221085281299
 30
0.0
 11
1.645295032615926
 21
79.4221085281299
 31
0.0
  0
LINE
  5
91D
330
879
100
AcDbEntity
  8
0
 62
     0
370
    -2
100
AcDbLine
 10
1.716161032615929
 20
89.1721085281299
 30
0.0
 11
1.716161032615928
 21
79.67210852812989
 31
0.0
  0
SOLID
  5
91E
330
879
100
AcDbEntity
  8
0
 62
     0
100
AcDbTrace
 10
1.674494365949263
 20
89.1721085281299
 30
0.0
 11
1.757827699282596
 21
89.1721085281299
 31
0.0
 12
1.716161032615929
 22
89.42210852812989
 32
0.0
 13
1.716161032615929
 23
89.42210852812989
 33
0.0
  0
SOLID
  5
91F
330
879
100
AcDbEntity
  8
0
 62
     0
100
AcDbTrace
 10
1.67449436594926
 20
79.67210852812989
 30
0.0
 11
1.757827699282595
 21
79.67210852812989
 31
0.0
 12
1.716161032615928
 22
79.4221085281299
 32
0.0
 13
1.716161032615928
 23
79.4221085281299
 33
0.0
  0
MTEXT
  5
920
330
879
100
AcDbEntity
  8
0
 62
     0
100
AcDbMText
 10
1.501161032615915
 20
84.42210852812989
 30
0.0
 40
0.25
 41
0.0
 71
     5
 72
     1
  1
\A1;10.00
 11
0.0000000000000001
 21
1.0
 31
0.0
 73
     1
 44
1.0
1001
ACAD
1000
MTEXTBEGIN
1070
    73
1070
     1
1070
    44
1040
1.0
1070
    74
1070
     0
1000
MTEXTEND
  0
POINT
  5
921
330
879
100
AcDbEntity
  8
DEFPOINTS
 62
     0
100
AcDbPoint
 10
4.065685106553075
 20
89.42210852812989
 30
0.0
  0
POINT
  5
922
330
879
100
AcDbEntity
  8
DEFPOINTS
 62
     0
100
AcDbPoint
 10
4.065685106553075
 20
79.4221085281299
 30
0.0
  0
POINT
  5
923
330
879
100
AcDbEntity
  8
DEFPOINTS
 62
     0
100
AcDbPoint
 10
1.716161032615928
 20
79.4221085281299
 30
0.0
  0
ENDBLK
  5
884
330
879
100
AcDbEntity
  8
0
100
AcDbBlockEnd
  0
BLOCK
  5
890
330
886
100
AcDbEntity
  8
0
100
AcDbBlockBegin
  2
*D6
 70
     1
 10
0.0
 20
0.0
 30
0.0
  3
*D6
  1

  0
LINE
  5
912
330
886
100
AcDbEntity
  8
0
 62
     0
370
    -2
100
AcDbLine
 10
4.324248106553093
 20
90.17210852812992
 30
0.0
 11
0.0004071370183829
 21
90.17210852812992
 31
0.0
  0
LINE
  5
913
330
886
100
AcDbEntity
  8
0
 62
     0
370
    -2
100
AcDbLine
 10
4.324248106553093
 20
78.6721085281299
 30
0.0
 11
0.0004071370183804
 21
78.6721085281299
 31
0.0
  0
LINE
  5
914
330
886
100
AcDbEntity
  8
0
 62
     0
370
    -2
100
AcDbLine
 10
0.0712731370183822
 20
89.9221085281299
 30
0.0
 11
0.0712731370183797
 21
78.9221085281299
 31
0.0
  0
SOLID
  5
915
330
886
100
AcDbEntity
  8
0
 62
     0
100
AcDbTrace
 10
0.0296064703517155
 20
89.9221085281299
 30
0.0
 11
0.1129398036850488
 21
89.9221085281299
 31
0.0
 12
0.0712731370183822
 22
90.17210852812992
 32
0.0
 13
0.0712731370183822
 23
90.17210852812992
 33
0.0
  0
SOLID
  5
916
330
886
100
AcDbEntity
  8
0
 62
     0
100
AcDbTrace
 10
0.0296064703517131
 20
78.9221085281299
 30
0.0
 11
0.1129398036850464
 21
78.9221085281299
 31
0.0
 12
0.0712731370183797
 22
78.6721085281299
 32
0.0
 13
0.0712731370183797
 23
78.6721085281299
 33
0.0
  0
MTEXT
  5
917
330
886
100
AcDbEntity
  8
0
 62
     0
100
AcDbMText
 10
-0.1437268629816327
 20
84.42210852812989
 30
0.0
 40
0.25
 41
0.0
 71
     5
 72
     1
  1
\A1;11.50
 11
0.0000000000000001
 21
1.0
 31
0.0
 73
     1
 44
1.0
1001
ACAD
1000
MTEXTBEGIN
1070
    73
1070
     1
1070
    44
1040
1.0
1070
    74
1070
     0
1000
MTEXTEND
  0
POINT
  5
918
330
886
100
AcDbEntity
  8
DEFPOINTS
 62
     0
100
AcDbPoint
 10
4.328185106553092
 20
90.17210852812992
 30
0.0
  0
POINT
  5
919
330
886
100
AcDbEntity
  8
DEFPOINTS
 62
     0
100
AcDbPoint
 10
4.328185106553092
 20
78.6721085281299
 30
0.0
  0
POINT
  5
91A
330
886
100
AcDbEntity
  8
DEFPOINTS
 62
     0
100
AcDbPoint
 10
0.0712731370183797
 20
78.6721085281299
 30
0.0
  0
ENDBLK
  5
891
330
886
100
AcDbEntity
  8
0
100
AcDbBlockEnd
  0
BLOCK
  5
89D
330
893
100
AcDbEntity
  8
0
100
AcDbBlockBegin
  2
*D7
 70
     1
 10
0.0
 20
0.0
 30
0.0
  3
*D7
  1

  0
LINE
  5
909
330
893
100
AcDbEntity
  8
0
 62
     0
370
    -2
100
AcDbLine
 10
9.394122106453076
 20
86.92210852812989
 30
0.0
 11
11.70798661191577
 21
86.92210852812989
 31
0.0
  0
LINE
  5
90A
330
893
100
AcDbEntity
  8
0
 62
     0
370
    -2
100
AcDbLine
 10
9.394122106028524
 20
81.92210852812989
 30
0.0
 11
11.70798661191577
 21
81.92210852812989
 31
0.0
  0
LINE
  5
90B
330
893
100
AcDbEntity
  8
0
 62
     0
370
    -2
100
AcDbLine
 10
11.63712061191577
 20
86.6721085281299
 30
0.0
 11
11.63712061191577
 21
82.17210852812989
 31
0.0
  0
SOLID
  5
90C
330
893
100
AcDbEntity
  8
0
 62
     0
100
AcDbTrace
 10
11.59545394524911
 20
86.6721085281299
 30
0.0
 11
11.67878727858244
 21
86.6721085281299
 31
0.0
 12
11.63712061191577
 22
86.92210852812989
 32
0.0
 13
11.63712061191577
 23
86.92210852812989
 33
0.0
  0
SOLID
  5
90D
330
893
100
AcDbEntity
  8
0
 62
     0
100
AcDbTrace
 10
11.59545394524911
 20
82.17210852812989
 30
0.0
 11
11.67878727858244
 21
82.17210852812989
 31
0.0
 12
11.63712061191577
 22
81.92210852812989
 32
0.0
 13
11.63712061191577
 23
81.92210852812989
 33
0.0
  0
MTEXT
  5
90E
330
893
100
AcDbEntity
  8
0
 62
     0
100
AcDbMText
 10
11.42212061191576
 20
84.42210852812989
 30
0.0
 40
0.25
 41
0.0
 71
     5
 72
     1
  1
\A1;5.00
 11
0.0000000000000001
 21
1.0
 31
0.0
 73
     1
 44
1.0
1001
ACAD
1000
MTEXTBEGIN
1070
    73
1070
     1
1070
    44
1040
1.0
1070
    74
1070
     0
1000
MTEXTEND
  0
POINT
  5
90F
330
893
100
AcDbEntity
  8
DEFPOINTS
 62
     0
100
AcDbPoint
 10
9.390185106453074
 20
86.92210852812989
 30
0.0
  0
POINT
  5
910
330
893
100
AcDbEntity
  8
DEFPOINTS
 62
     0
100
AcDbPoint
 10
9.390185106028523
 20
81.92210852812989
 30
0.0
  0
POINT
  5
911
330
893
100
AcDbEntity
  8
DEFPOINTS
 62
     0
100
AcDbPoint
 10
11.63712061191577
 20
81.92210852812989
 30
0.0
  0
ENDBLK
  5
89E
330
893
100
AcDbEntity
  8
0
100
AcDbBlockEnd
  0
BLOCK
  5
8AA
330
8A0
100
AcDbEntity
  8
0
100
AcDbBlockBegin
  2
*D8
 70
     1
 10
0.0
 20
0.0
 30
0.0
  3
*D8
  1

  0
LINE
  5
900
330
8A0
100
AcDbEntity
  8
0
 62
     0
370
    -2
100
AcDbLine
 10
31.91917789603226
 20
90.17210852812992
 30
0.0
 11
36.55200914313193
 21
90.1721085281299
 31
0.0
  0
LINE
  5
901
330
8A0
100
AcDbEntity
  8
0
 62
     0
370
    -2
100
AcDbLine
 10
31.91917789603224
 20
78.67210852812987
 30
0.0
 11
36.55200914313193
 21
78.67210852812984
 31
0.0
  0
LINE
  5
902
330
8A0
100
AcDbEntity
  8
0
 62
     0
370
    -2
100
AcDbLine
 10
36.48114314313193
 20
89.9221085281299
 30
0.0
 11
36.48114314313192
 21
78.92210852812984
 31
0.0
  0
SOLID
  5
903
330
8A0
100
AcDbEntity
  8
0
 62
     0
100
AcDbTrace
 10
36.43947647646526
 20
89.9221085281299
 30
0.0
 11
36.5228098097986
 21
89.9221085281299
 31
0.0
 12
36.48114314313193
 22
90.1721085281299
 32
0.0
 13
36.48114314313193
 23
90.1721085281299
 33
0.0
  0
SOLID
  5
904
330
8A0
100
AcDbEntity
  8
0
 62
     0
100
AcDbTrace
 10
36.43947647646526
 20
78.92210852812984
 30
0.0
 11
36.52280980979858
 21
78.92210852812984
 31
0.0
 12
36.48114314313192
 22
78.67210852812984
 32
0.0
 13
36.48114314313192
 23
78.67210852812984
 33
0.0
  0
MTEXT
  5
905
330
8A0
100
AcDbEntity
  8
0
 62
     0
100
AcDbMText
 10
36.26614314313191
 20
84.42210852812989
 30
0.0
 40
0.25
 41
0.0
 71
     5
 72
     1
  1
\A1;11.50
 11
0.0000000000000001
 21
1.0
 31
0.0
 73
     1
 44
1.0
1001
ACAD
1000
MTEXTBEGIN
1070
    73
1070
     1
1070
    44
1040
1.0
1070
    74
1070
     0
1000
MTEXTEND
  0
POINT
  5
906
330
8A0
100
AcDbEntity
  8
DEFPOINTS
 62
     0
100
AcDbPoint
 10
31.91524089603225
 20
90.17210852812992
 30
0.0
  0
POINT
  5
907
330
8A0
100
AcDbEntity
  8
DEFPOINTS
 62
     0
100
AcDbPoint
 10
31.91524089603224
 20
78.67210852812987
 30
0.0
  0
POINT
  5
908
330
8A0
100
AcDbEntity
  8
DEFPOINTS
 62
     0
100
AcDbPoint
 10
36.48114314313192
 20
78.67210852812984
 30
0.0
  0
ENDBLK
  5
8AB
330
8A0
100
AcDbEntity
  8
0
100
AcDbBlockEnd
  0
BLOCK
  5
8B7
330
8AD
100
AcDbEntity
  8
0
100
AcDbBlockBegin
  2
*D9
 70
     1
 10
0.0
 20
0.0
 30
0.0
  3
*D9
  1

  0
LINE
  5
8F7
330
8AD
100
AcDbEntity
  8
0
 62
     0
370
    -2
100
AcDbLine
 10
20.39880389603222
 20
84.42210852812987
 30
0.0
 11
17.584900415311
 21
84.42210852812987
 31
0.0
  0
LINE
  5
8F8
330
8AD
100
AcDbEntity
  8
0
 62
     0
370
    -2
100
AcDbLine
 10
22.41130389603223
 20
78.6721085281299
 30
0.0
 11
17.584900415311
 21
78.6721085281299
 31
0.0
  0
LINE
  5
8F9
330
8AD
100
AcDbEntity
  8
0
 62
     0
370
    -2
100
AcDbLine
 10
17.655766415311
 20
84.17210852812987
 30
0.0
 11
17.655766415311
 21
78.9221085281299
 31
0.0
  0
SOLID
  5
8FA
330
8AD
100
AcDbEntity
  8
0
 62
     0
100
AcDbTrace
 10
17.61409974864433
 20
84.17210852812987
 30
0.0
 11
17.69743308197767
 21
84.17210852812987
 31
0.0
 12
17.655766415311
 22
84.42210852812987
 32
0.0
 13
17.655766415311
 23
84.42210852812987
 33
0.0
  0
SOLID
  5
8FB
330
8AD
100
AcDbEntity
  8
0
 62
     0
100
AcDbTrace
 10
17.61409974864433
 20
78.9221085281299
 30
0.0
 11
17.69743308197767
 21
78.9221085281299
 31
0.0
 12
17.655766415311
 22
78.6721085281299
 32
0.0
 13
17.655766415311
 23
78.6721085281299
 33
0.0
  0
MTEXT
  5
8FC
330
8AD
100
AcDbEntity
  8
0
 62
     0
100
AcDbMText
 10
17.44076641531099
 20
81.54710852812987
 30
0.0
 40
0.25
 41
0.0
 71
     5
 72
     1
  1
\A1;5.75
 11
0.0000000000000001
 21
1.0
 31
0.0
 73
     1
 44
1.0
1001
ACAD
1000
MTEXTBEGIN
1070
    73
1070
     1
1070
    44
1040
1.0
1070
    74
1070
     0
1000
MTEXTEND
  0
POINT
  5
8FD
330
8AD
100
AcDbEntity
  8
DEFPOINTS
 62
     0
100
AcDbPoint
 10
20.40274089603222
 20
84.42210852812987
 30
0.0
  0
POINT
  5
8FE
330
8AD
100
AcDbEntity
  8
DEFPOINTS
 62
     0
100
AcDbPoint
 10
22.41524089603223
 20
78.6721085281299
 30
0.0
  0
POINT
  5
8FF
330
8AD
100
AcDbEntity
  8
DEFPOINTS
 62
     0
100
AcDbPoint
 10
17.655766415311
 20
78.6721085281299
 30
0.0
  0
ENDBLK
  5
8B8
330
8AD
100
AcDbEntity
  8
0
100
AcDbBlockEnd
  0
BLOCK
  5
8C4
330
8BA
100
AcDbEntity
  8
0
100
AcDbBlockBegin
  2
*D10
 70
     1
 10
0.0
 20
0.0
 30
0.0
  3
*D10
  1

  0
LINE
  5
8EE
330
8BA
100
AcDbEntity
  8
0
 62
     0
370
    -2
100
AcDbLine
 10
20.39486689603222
 20
84.42210852812987
 30
0.0
 11
17.584900415311
 21
84.42210852812987
 31
0.0
  0
LINE
  5
8EF
330
8BA
100
AcDbEntity
  8
0
 62
     0
370
    -2
100
AcDbLine
 10
21.69880389603224
 20
92.39685852812993
 30
0.0
 11
17.584900415311
 21
92.39685852812993
 31
0.0
  0
LINE
  5
8F0
330
8BA
100
AcDbEntity
  8
0
 62
     0
370
    -2
100
AcDbLine
 10
17.655766415311
 20
84.67210852812987
 30
0.0
 11
17.655766415311
 21
92.14685852812992
 31
0.0
  0
SOLID
  5
8F1
330
8BA
100
AcDbEntity
  8
0
 62
     0
100
AcDbTrace
 10
17.61409974864433
 20
84.67210852812987
 30
0.0
 11
17.69743308197767
 21
84.67210852812987
 31
0.0
 12
17.655766415311
 22
84.42210852812987
 32
0.0
 13
17.655766415311
 23
84.42210852812987
 33
0.0
  0
SOLID
  5
8F2
330
8BA
100
AcDbEntity
  8
0
 62
     0
100
AcDbTrace
 10
17.61409974864434
 20
92.14685852812992
 30
0.0
 11
17.69743308197767
 21
92.14685852812992
 31
0.0
 12
17.655766415311
 22
92.39685852812993
 32
0.0
 13
17.655766415311
 23
92.39685852812993
 33
0.0
  0
MTEXT
  5
8F3
330
8BA
100
AcDbEntity
  8
0
 62
     0
100
AcDbMText
 10
17.44076641531099
 20
88.4094835281299
 30
0.0
 40
0.25
 41
0.0
 71
     5
 72
     1
  1
\A1;7.97
 11
0.0000000000000001
 21
1.0
 31
0.0
 73
     1
 44
1.0
1001
ACAD
1000
MTEXTBEGIN
1070
    73
1070
     1
1070
    44
1040
1.0
1070
    74
1070
     0
1000
MTEXTEND
  0
POINT
  5
8F4
330
8BA
100
AcDbEntity
  8
DEFPOINTS
 62
     0
100
AcDbPoint
 10
20.39880389603222
 20
84.42210852812987
 30
0.0
  0
POINT
  5
8F5
330
8BA
100
AcDbEntity
  8
DEFPOINTS
 62
     0
100
AcDbPoint
 10
21.70274089603224
 20
92.39685852812993
 30
0.0
  0
POINT
  5
8F6
330
8BA
100
AcDbEntity
  8
DEFPOINTS
 62
     0
100
AcDbPoint
 10
17.655766415311
 20
92.39685852812993
 30
0.0
  0
ENDBLK
  5
8C5
330
8BA
100
AcDbEntity
  8
0
100
AcDbBlockEnd
  0
BLOCK
  5
8E3
330
8D9
100
AcDbEntity
  8
0
100
AcDbBlockBegin
  2
*D11
 70
     1
 10
0.0
 20
0.0
 30
0.0
  3
*D11
  1

  0
LINE
  5
9CA
330
8D9
100
AcDbEntity
  8
0
 62
     0
370
    -2
100
AcDbLine
 10
52.11086279814812
 20
86.67604552812989
 30
0.0
 11
52.11086279814812
 21
92.85857357502584
 31
0.0
  0
LINE
  5
9CB
330
8D9
100
AcDbEntity
  8
0
 62
     0
370
    -2
100
AcDbLine
 10
46.10636279864809
 20
89.42604552812989
 30
0.0
 11
46.10636279864809
 21
92.85857357502584
 31
0.0
  0
LINE
  5
9CC
330
8D9
100
AcDbEntity
  8
0
 62
     0
370
    -2
100
AcDbLine
 10
51.86086279814812
 20
92.78770757502584
 30
0.0
 11
46.3563627986481
 21
92.78770757502584
 31
0.0
  0
SOLID
  5
9CD
330
8D9
100
AcDbEntity
  8
0
 62
     0
100
AcDbTrace
 10
51.86086279814812
 20
92.82937424169253
 30
0.0
 11
51.86086279814812
 21
92.74604090835918
 31
0.0
 12
52.11086279814812
 22
92.78770757502584
 32
0.0
 13
52.11086279814812
 23
92.78770757502584
 33
0.0
  0
SOLID
  5
9CE
330
8D9
100
AcDbEntity
  8
0
 62
     0
100
AcDbTrace
 10
46.3563627986481
 20
92.82937424169253
 30
0.0
 11
46.3563627986481
 21
92.74604090835918
 31
0.0
 12
46.10636279864809
 22
92.78770757502584
 32
0.0
 13
46.10636279864809
 23
92.78770757502584
 33
0.0
  0
MTEXT
  5
9CF
330
8D9
100
AcDbEntity
  8
0
 62
     0
100
AcDbMText
 10
49.10861279839811
 20
93.00270757502586
 30
0.0
 40
0.25
 41
0.0
 71
     5
 72
     1
  1
\A1;6.00
 73
     1
 44
1.0
1001
ACAD
1000
MTEXTBEGIN
1070
    73
1070
     1
1070
    44
1040
1.0
1070
    74
1070
     0
1000
MTEXTEND
  0
POINT
  5
9D0
330
8D9
100
AcDbEntity
  8
DEFPOINTS
 62
     0
100
AcDbPoint
 10
52.11086279814812
 20
86.6721085281299
 30
0.0
  0
POINT
  5
9D1
330
8D9
100
AcDbEntity
  8
DEFPOINTS
 62
     0
100
AcDbPoint
 10
46.10636279864809
 20
89.42210852812989
 30
0.0
  0
POINT
  5
9D2
330
8D9
100
AcDbEntity
  8
DEFPOINTS
 62
     0
100
AcDbPoint
 10
46.10636279864809
 20
92.78770757502584
 30
0.0
  0
ENDBLK
  5
8E4
330
8D9
100
AcDbEntity
  8
0
100
AcDbBlockEnd
  0
BLOCK
  5
94A
330
940
100
AcDbEntity
  8
0
100
AcDbBlockBegin
  2
*D12
 70
     1
 10
0.0
 20
0.0
 30
0.0
  3
*D12
  1

  0
LINE
  5
941
330
940
100
AcDbEntity
  8
0
 62
     0
370
    -2
100
AcDbLine
 10
19.56074089603221
 20
86.20527479541371
 30
0.0
 11
19.56074089603221
 21
96.14339834875144
 31
0.0
  0
LINE
  5
942
330
940
100
AcDbEntity
  8
0
 62
     0
370
    -2
100
AcDbLine
 10
34.76974089603228
 20
86.20527479541371
 30
0.0
 11
34.76974089603228
 21
96.14339834875144
 31
0.0
  0
LINE
  5
943
330
940
100
AcDbEntity
  8
0
 62
     0
370
    -2
100
AcDbLine
 10
19.81074089603222
 20
96.07253234875145
 30
0.0
 11
34.51974089603228
 21
96.07253234875145
 31
0.0
  0
SOLID
  5
944
330
940
100
AcDbEntity
  8
0
 62
     0
100
AcDbTrace
 10
19.81074089603222
 20
96.11419901541813
 30
0.0
 11
19.81074089603222
 21
96.03086568208476
 31
0.0
 12
19.56074089603221
 22
96.07253234875145
 32
0.0
 13
19.56074089603221
 23
96.07253234875145
 33
0.0
  0
SOLID
  5
945
330
940
100
AcDbEntity
  8
0
 62
     0
100
AcDbTrace
 10
34.51974089603228
 20
96.11419901541813
 30
0.0
 11
34.51974089603228
 21
96.03086568208476
 31
0.0
 12
34.76974089603228
 22
96.07253234875145
 32
0.0
 13
34.76974089603228
 23
96.07253234875145
 33
0.0
  0
MTEXT
  5
946
330
940
100
AcDbEntity
  8
0
 62
     0
100
AcDbMText
 10
27.16524089603225
 20
96.28753234875143
 30
0.0
 40
0.25
 41
0.0
 71
     5
 72
     1
  1
\A1;15.21
 73
     1
 44
1.0
1001
ACAD
1000
MTEXTBEGIN
1070
    73
1070
     1
1070
    44
1040
1.0
1070
    74
1070
     0
1000
MTEXTEND
  0
POINT
  5
947
330
940
100
AcDbEntity
  8
DEFPOINTS
 62
     0
100
AcDbPoint
 10
19.56074089603221
 20
86.20133779541372
 30
0.0
  0
POINT
  5
948
330
940
100
AcDbEntity
  8
DEFPOINTS
 62
     0
100
AcDbPoint
 10
34.76974089603228
 20
86.20133779541372
 30
0.0
  0
POINT
  5
949
330
940
100
AcDbEntity
  8
DEFPOINTS
 62
     0
100
AcDbPoint
 10
34.76974089603228
 20
96.07253234875145
 30
0.0
  0
ENDBLK
  5
94B
330
940
100
AcDbEntity
  8
0
100
AcDbBlockEnd
  0
BLOCK
  5
95A
330
950
100
AcDbEntity
  8
0
100
AcDbBlockBegin
  2
*D13
 70
     1
 10
0.0
 20
0.0
 30
0.0
  3
*D13
  1

  0
LINE
  5
951
330
950
100
AcDbEntity
  8
0
 62
     0
370
    -2
100
AcDbLine
 10
7.136748106553093
 20
92.39685852812993
 30
0.0
 11
-1.903604491540906
 21
92.39685852812993
 31
0.0
  0
LINE
  5
952
330
950
100
AcDbEntity
  8
0
 62
     0
370
    -2
100
AcDbLine
 10
5.074248106553092
 20
78.6721085281299
 30
0.0
 11
-1.903604491540909
 21
78.6721085281299
 31
0.0
  0
LINE
  5
953
330
950
100
AcDbEntity
  8
0
 62
     0
370
    -2
100
AcDbLine
 10
-1.832738491540906
 20
92.14685852812992
 30
0.0
 11
-1.832738491540909
 21
78.9221085281299
 31
0.0
  0
SOLID
  5
954
330
950
100
AcDbEntity
  8
0
 62
     0
100
AcDbTrace
 10
-1.874405158207573
 20
92.14685852812992
 30
0.0
 11
-1.791071824874238
 21
92.14685852812992
 31
0.0
 12
-1.832738491540906
 22
92.39685852812993
 32
0.0
 13
-1.832738491540906
 23
92.39685852812993
 33
0.0
  0
SOLID
  5
955
330
950
100
AcDbEntity
  8
0
 62
     0
100
AcDbTrace
 10
-1.874405158207576
 20
78.9221085281299
 30
0.0
 11
-1.791071824874241
 21
78.9221085281299
 31
0.0
 12
-1.832738491540909
 22
78.6721085281299
 32
0.0
 13
-1.832738491540909
 23
78.6721085281299
 33
0.0
  0
MTEXT
  5
956
330
950
100
AcDbEntity
  8
0
 62
     0
100
AcDbMText
 10
-2.047738491540921
 20
85.5344835281299
 30
0.0
 40
0.25
 41
0.0
 71
     5
 72
     1
  1
\A1;13.72
 11
0.0000000000000001
 21
1.0
 31
0.0
 73
     1
 44
1.0
1001
ACAD
1000
MTEXTBEGIN
1070
    73
1070
     1
1070
    44
1040
1.0
1070
    74
1070
     0
1000
MTEXTEND
  0
POINT
  5
957
330
950
100
AcDbEntity
  8
DEFPOINTS
 62
     0
100
AcDbPoint
 10
7.140685106553092
 20
92.39685852812993
 30
0.0
  0
POINT
  5
958
330
950
100
AcDbEntity
  8
DEFPOINTS
 62
     0
100
AcDbPoint
 10
5.078185106553092
 20
78.6721085281299
 30
0.0
  0
POINT
  5
959
330
950
100
AcDbEntity
  8
DEFPOINTS
 62
     0
100
AcDbPoint
 10
-1.832738491540909
 20
78.6721085281299
 30
0.0
  0
ENDBLK
  5
95B
330
950
100
AcDbEntity
  8
0
100
AcDbBlockEnd
  0
BLOCK
  5
A0F
330
A0E
100
AcDbEntity
  8
0
100
AcDbBlockBegin
  2
*D14
 70
     1
 10
0.0
 20
0.0
 30
0.0
  3
*D14
  1

  0
LINE
  5
A11
330
A0E
100
AcDbEntity
  8
0
 62
     0
370
    -2
100
AcDbLine
 10
23.71524089603251
 20
90.34584399004664
 30
0.0
 11
23.71524089603251
 21
98.50540741607829
 31
0.0
  0
LINE
  5
A12
330
A0E
100
AcDbEntity
  8
0
 62
     0
370
    -2
100
AcDbLine
 10
27.16524089603251
 20
90.34584399004664
 30
0.0
 11
27.16524089603251
 21
98.50540741607829
 31
0.0
  0
LINE
  5
A13
330
A0E
100
AcDbEntity
  8
0
 62
     0
370
    -2
100
AcDbLine
 10
23.96524089603251
 20
98.4345414160783
 30
0.0
 11
26.91524089603251
 21
98.4345414160783
 31
0.0
  0
SOLID
  5
A14
330
A0E
100
AcDbEntity
  8
0
 62
     0
100
AcDbTrace
 10
23.96524089603251
 20
98.47620808274498
 30
0.0
 11
23.96524089603251
 21
98.39287474941164
 31
0.0
 12
23.71524089603251
 22
98.4345414160783
 32
0.0
 13
23.71524089603251
 23
98.4345414160783
 33
0.0
  0
SOLID
  5
A15
330
A0E
100
AcDbEntity
  8
0
 62
     0
100
AcDbTrace
 10
26.91524089603251
 20
98.47620808274498
 30
0.0
 11
26.91524089603251
 21
98.39287474941164
 31
0.0
 12
27.16524089603251
 22
98.4345414160783
 32
0.0
 13
27.16524089603251
 23
98.4345414160783
 33
0.0
  0
MTEXT
  5
A16
330
A0E
100
AcDbEntity
  8
0
 62
     0
100
AcDbMText
 10
25.44024089603251
 20
98.64954141607832
 30
0.0
 40
0.25
 41
0.0
 71
     5
 72
     1
  1
\A1;3.45
 73
     1
 44
1.0
1001
ACAD
1000
MTEXTBEGIN
1070
    73
1070
     1
1070
    44
1040
1.0
1070
    74
1070
     0
1000
MTEXTEND
  0
POINT
  5
A17
330
A0E
100
AcDbEntity
  8
DEFPOINTS
 62
     0
100
AcDbPoint
 10
23.71524089603251
 20
90.34190699004666
 30
0.0
  0
POINT
  5
A18
330
A0E
100
AcDbEntity
  8
DEFPOINTS
 62
     0
100
AcDbPoint
 10
27.16524089603251
 20
90.34190699004666
 30
0.0
  0
POINT
  5
A19
330
A0E
100
AcDbEntity
  8
DEFPOINTS
 62
     0
100
AcDbPoint
 10
27.16524089603251
 20
98.4345414160783
 30
0.0
  0
ENDBLK
  5
A10
330
A0E
100
AcDbEntity
  8
0
100
AcDbBlockEnd
  0
ENDSEC
  0
SECTION
  2
ENTITIES
  0
LINE
  5
389
330
1ED
100
AcDbEntity
  8
0
100
AcDbLine
 10
46.3688627986481
 20
78.6721085281299
 30
0.0
 11
47.86886279864811
 21
78.6721085281299
 31
0.0
  0
LINE
  5
38B
330
1ED
100
AcDbEntity
  8
0
100
AcDbLine
 10
47.86886279864811
 20
78.6721085281299
 30
0.0
 11
47.86886279864811
 21
81.92210852812989
 31
0.0
  0
LINE
  5
38C
330
1ED
100
AcDbEntity
  8
0
100
AcDbLine
 10
46.3688627986481
 20
78.6721085281299
 30
0.0
 11
46.3688627986481
 21
84.42210852812989
 31
0.0
  0
CIRCLE
  5
38D
330
1ED
100
AcDbEntity
  8
0
100
AcDbCircle
 10
46.61786279844814
 20
82.17210852812989
 30
0.0
 40
0.125
  0
CIRCLE
  5
38E
330
1ED
100
AcDbEntity
  8
0
100
AcDbCircle
 10
47.61836279854811
 20
82.17210852812989
 30
0.0
 40
0.125
  0
CIRCLE
  5
38F
330
1ED
100
AcDbEntity
  8
0
100
AcDbCircle
 10
47.11886279864811
 20
83.23510852812992
 30
0.0
 40
0.125
  0
ARC
  5
390
330
1ED
100
AcDbEntity
  8
0
100
AcDbCircle
 10
47.5838627984481
 20
84.10910852812991
 30
0.0
 40
0.125
100
AcDbArc
 50
86.06009701427936
 51
296.0938248807768
  0
CIRCLE
  5
391
330
1ED
100
AcDbEntity
  8
0
100
AcDbCircle
 10
46.65386279874812
 20
84.10910852812991
 30
0.0
 40
0.125
  0
CIRCLE
  5
392
330
1ED
100
AcDbEntity
  8
0
100
AcDbCircle
 10
46.65386279874812
 20
84.7351085281299
 30
0.0
 40
0.125
  0
ARC
  5
393
330
1ED
100
AcDbEntity
  8
0
100
AcDbCircle
 10
47.5838627984481
 20
84.7351085281299
 30
0.0
 40
0.125
100
AcDbArc
 50
63.84418517910391
 51
273.9673529779106
  0
CIRCLE
  5
394
330
1ED
100
AcDbEntity
  8
0
100
AcDbCircle
 10
47.11886279864811
 20
85.60910852812991
 30
0.0
 40
0.125
  0
CIRCLE
  5
395
330
1ED
100
AcDbEntity
  8
0
100
AcDbCircle
 10
47.61836279854811
 20
86.6721085281299
 30
0.0
 40
0.125
  0
CIRCLE
  5
396
330
1ED
100
AcDbEntity
  8
0
100
AcDbCircle
 10
46.61786279844814
 20
86.6721085281299
 30
0.0
 40
0.125
  0
LINE
  5
397
330
1ED
100
AcDbEntity
  8
0
100
AcDbLine
 10
46.3688627986481
 20
90.17210852812992
 30
0.0
 11
46.3688627986481
 21
84.42210852812989
 31
0.0
  0
LINE
  5
398
330
1ED
100
AcDbEntity
  8
0
100
AcDbLine
 10
47.86886279864811
 20
90.17210852812992
 30
0.0
 11
47.86886279864811
 21
86.92210852812989
 31
0.0
  0
LINE
  5
39A
330
1ED
100
AcDbEntity
  8
0
100
AcDbLine
 10
46.3688627986481
 20
90.17210852812992
 30
0.0
 11
47.86886279864811
 21
90.17210852812992
 31
0.0
  0
CIRCLE
  5
39B
330
1ED
100
AcDbEntity
  8
0
100
AcDbCircle
 10
49.1813627986481
 20
84.42185852812992
 30
0.0
 40
0.245
  0
LINE
  5
3A1
330
1ED
100
AcDbEntity
  8
LAYER1
  6
Continuous
 62
     7
100
AcDbLine
 10
51.33011279864811
 20
83.04935852812992
 30
0.0
 11
50.2751127981481
 21
83.04935852812992
 31
0.0
  0
ARC
  5
3A2
330
1ED
100
AcDbEntity
  8
LAYER1
  6
Continuous
 62
     7
100
AcDbCircle
 10
50.2751127986481
 20
83.1118585281299
 30
0.0
 40
0.0625
100
AcDbArc
 50
180.0
 51
269.9999995354999
  0
LINE
  5
3A3
330
1ED
100
AcDbEntity
  8
LAYER1
  6
Continuous
 62
     7
100
AcDbLine
 10
50.2126127981481
 20
83.1118585281299
 30
0.0
 11
50.2126127981481
 21
83.1118585281299
 31
0.0
  0
LINE
  5
3A4
330
1ED
100
AcDbEntity
  8
LAYER1
  6
Continuous
 62
     7
100
AcDbLine
 10
50.2751127981481
 20
83.17435852812989
 30
0.0
 11
51.33011279864811
 21
83.17435852812989
 31
0.0
  0
ARC
  5
3A5
330
1ED
100
AcDbEntity
  8
LAYER1
  6
Continuous
 62
     7
100
AcDbCircle
 10
50.2751127986481
 20
83.1118585281299
 30
0.0
 40
0.0625
100
AcDbArc
 50
90.0000004645001
 51
180.0
  0
ARC
  5
3A6
330
1ED
100
AcDbEntity
  8
LAYER1
  6
Continuous
 62
     7
100
AcDbCircle
 10
50.2751127986481
 20
82.6748585281299
 30
0.0
 40
0.0625
100
AcDbArc
 50
90.0000004645001
 51
180.0
  0
LINE
  5
3A7
330
1ED
100
AcDbEntity
  8
LAYER1
  6
Continuous
 62
     7
100
AcDbLine
 10
50.2751127981481
 20
82.7373585281299
 30
0.0
 11
51.33011279864811
 21
82.7373585281299
 31
0.0
  0
LINE
  5
3A8
330
1ED
100
AcDbEntity
  8
LAYER1
  6
Continuous
 62
     7
100
AcDbLine
 10
50.2126127981481
 20
82.6748585281299
 30
0.0
 11
50.2126127981481
 21
82.6748585281299
 31
0.0
  0
CIRCLE
  5
3AE
330
1ED
100
AcDbEntity
  8
LAYER1
  6
Continuous
 62
     7
100
AcDbCircle
 10
49.74336279854807
 20
84.42185852812992
 30
0.0
 40
0.125
  0
CIRCLE
  5
3AF
330
1ED
100
AcDbEntity
  8
LAYER1
  6
Continuous
 62
     7
100
AcDbCircle
 10
48.90036279824812
 20
83.93515225122991
 30
0.0
 40
0.125
  0
ARC
  5
3B3
330
1ED
100
AcDbEntity
  8
LAYER1
  6
Continuous
 62
     7
100
AcDbCircle
 10
47.5838627985481
 20
84.10910852812991
 30
0.0
 40
0.195
100
AcDbArc
 50
89.4595444133399
 51
292.6943774830677
  0
CIRCLE
  5
3B4
330
1ED
100
AcDbEntity
  8
LAYER1
  6
Continuous
 62
     7
100
AcDbCircle
 10
46.65386279884812
 20
84.10910852812991
 30
0.0
 40
0.195
  0
ARC
  5
3B9
330
1ED
100
AcDbEntity
  8
LAYER1
  6
Continuous
 62
     7
100
AcDbCircle
 10
50.2751127986481
 20
82.6748585281299
 30
0.0
 40
0.0625
100
AcDbArc
 50
180.0
 51
269.9999995354999
  0
LINE
  5
3BA
330
1ED
100
AcDbEntity
  8
LAYER1
  6
Continuous
 62
     7
100
AcDbLine
 10
51.33011279864811
 20
82.6123585281299
 30
0.0
 11
50.2751127981481
 21
82.6123585281299
 31
0.0
  0
ARC
  5
3BB
330
1ED
100
AcDbEntity
  8
LAYER1
  6
Continuous
 62
     7
100
AcDbCircle
 10
51.33011279864811
 20
82.6748585281299
 30
0.0
 40
0.0625
100
AcDbArc
 50
269.9999995354999
 51
0.0
  0
LINE
  5
3BC
330
1ED
100
AcDbEntity
  8
LAYER1
  6
Continuous
 62
     7
100
AcDbLine
 10
51.3926127981481
 20
82.6748585281299
 30
0.0
 11
51.3926127981481
 21
82.6748585281299
 31
0.0
  0
ARC
  5
3BD
330
1ED
100
AcDbEntity
  8
LAYER1
  6
Continuous
 62
     7
100
AcDbCircle
 10
51.33011279864811
 20
82.6748585281299
 30
0.0
 40
0.0625
100
AcDbArc
 50
0.0
 51
90.00000046450008
  0
CIRCLE
  5
3C2
330
1ED
100
AcDbEntity
  8
LAYER1
  6
Continuous
 62
     7
100
AcDbCircle
 10
47.61986279884809
 20
82.17210852812989
 30
0.0
 40
0.094
  0
CIRCLE
  5
3C3
330
1ED
100
AcDbEntity
  8
LAYER1
  6
Continuous
 62
     7
100
AcDbCircle
 10
46.6193627987481
 20
82.17210852812989
 30
0.0
 40
0.094
  0
CIRCLE
  5
3C4
330
1ED
100
AcDbEntity
  8
LAYER1
  6
Continuous
 62
     7
100
AcDbCircle
 10
47.11886279864811
 20
83.23510852812992
 30
0.0
 40
0.195
  0
LINE
  5
3C5
330
1ED
100
AcDbEntity
  8
LAYER1
  6
Continuous
 62
     7
100
AcDbLine
 10
50.68460169252511
 20
83.48635852812989
 30
0.0
 11
50.4793765697615
 21
83.48635852812989
 31
0.0
  0
LINE
  5
3C7
330
1ED
100
AcDbEntity
  8
LAYER1
  6
Continuous
 62
     7
100
AcDbLine
 10
50.2126127981481
 20
83.54885852812989
 30
0.0
 11
50.2126127981481
 21
83.54885852812989
 31
0.0
  0
LINE
  5
3C8
330
1ED
100
AcDbEntity
  8
LAYER1
  6
Continuous
 62
     7
100
AcDbLine
 10
50.56088798870447
 20
83.6113585281299
 30
0.0
 11
50.66928687272209
 21
83.6113585281299
 31
0.0
  0
ARC
  5
3CA
330
1ED
100
AcDbEntity
  8
LAYER1
  6
Continuous
 62
     7
100
AcDbCircle
 10
51.33011279864811
 20
83.1118585281299
 30
0.0
 40
0.0625
100
AcDbArc
 50
0.0
 51
90.00000046450008
  0
LINE
  5
3CE
330
1ED
100
AcDbEntity
  8
LAYER1
  6
Continuous
 62
     7
100
AcDbLine
 10
51.86086279854809
 20
81.92210852812989
 30
0.0
 11
46.3688627981481
 21
81.92210852812989
 31
0.0
  0
ARC
  5
3CF
330
1ED
100
AcDbEntity
  8
LAYER1
  6
Continuous
 62
     7
100
AcDbCircle
 10
51.86086279854809
 20
82.17210852812989
 30
0.0
 40
0.25
100
AcDbArc
 50
269.9999999027
 51
0.0
  0
LINE
  5
3D0
330
1ED
100
AcDbEntity
  8
LAYER1
  6
Continuous
 62
     7
100
AcDbLine
 10
51.3926127981481
 20
83.1118585281299
 30
0.0
 11
51.3926127981481
 21
83.1118585281299
 31
0.0
  0
ARC
  5
3D1
330
1ED
100
AcDbEntity
  8
LAYER1
  6
Continuous
 62
     7
100
AcDbCircle
 10
51.33011279864811
 20
83.1118585281299
 30
0.0
 40
0.0625
100
AcDbArc
 50
269.9999995354999
 51
0.0
  0
ARC
  5
3D2
330
1ED
100
AcDbEntity
  8
LAYER1
  6
Continuous
 62
     7
100
AcDbCircle
 10
51.33011279864811
 20
86.17085852812989
 30
0.0
 40
0.0625
100
AcDbArc
 50
269.9999995354999
 51
0.0
  0
LINE
  5
3D3
330
1ED
100
AcDbEntity
  8
LAYER1
  6
Continuous
 62
     7
100
AcDbLine
 10
51.33011279864811
 20
86.10835852812989
 30
0.0
 11
50.2751127981481
 21
86.10835852812989
 31
0.0
  0
ARC
  5
3D4
330
1ED
100
AcDbEntity
  8
LAYER1
  6
Continuous
 62
     7
100
AcDbCircle
 10
50.2751127986481
 20
86.17085852812989
 30
0.0
 40
0.0625
100
AcDbArc
 50
180.0
 51
269.9999995354999
  0
ARC
  5
3D5
330
1ED
100
AcDbEntity
  8
LAYER1
  6
Continuous
 62
     7
100
AcDbCircle
 10
51.33011279864811
 20
85.7338585281299
 30
0.0
 40
0.0625
100
AcDbArc
 50
269.9999995354999
 51
0.0
  0
LINE
  5
3D6
330
1ED
100
AcDbEntity
  8
LAYER1
  6
Continuous
 62
     7
100
AcDbLine
 10
51.33011279864811
 20
85.67135852812993
 30
0.0
 11
50.2751127981481
 21
85.67135852812992
 31
0.0
  0
ARC
  5
3D7
330
1ED
100
AcDbEntity
  8
LAYER1
  6
Continuous
 62
     7
100
AcDbCircle
 10
50.2751127986481
 20
85.7338585281299
 30
0.0
 40
0.0625
100
AcDbArc
 50
180.0
 51
269.9999995354999
  0
LINE
  5
3D8
330
1ED
100
AcDbEntity
  8
LAYER1
  6
Continuous
 62
     7
100
AcDbLine
 10
50.2126127981481
 20
85.7338585281299
 30
0.0
 11
50.2126127981481
 21
85.7338585281299
 31
0.0
  0
LINE
  5
3D9
330
1ED
100
AcDbEntity
  8
LAYER1
  6
Continuous
 62
     7
100
AcDbLine
 10
50.2751127981481
 20
85.79635852812989
 30
0.0
 11
51.33011279864811
 21
85.79635852812989
 31
0.0
  0
ARC
  5
3DA
330
1ED
100
AcDbEntity
  8
LAYER1
  6
Continuous
 62
     7
100
AcDbCircle
 10
50.2751127986481
 20
85.7338585281299
 30
0.0
 40
0.0625
100
AcDbArc
 50
90.0000004645001
 51
180.0
  0
LINE
  5
3DE
330
1ED
100
AcDbEntity
  8
LAYER1
  6
Continuous
 62
     7
100
AcDbLine
 10
50.66928687272231
 20
85.2343585281299
 30
0.0
 11
50.55971099485979
 21
85.2343585281299
 31
0.0
  0
LINE
  5
3E1
330
1ED
100
AcDbEntity
  8
LAYER1
  6
Continuous
 62
     7
100
AcDbLine
 10
50.47793279290218
 20
85.35935852812988
 30
0.0
 11
50.68460169252535
 21
85.35935852812988
 31
0.0
  0
ARC
  5
3E3
330
1ED
100
AcDbEntity
  8
LAYER1
  6
Continuous
 62
     7
100
AcDbCircle
 10
51.33011279864811
 20
85.7338585281299
 30
0.0
 40
0.0625
100
AcDbArc
 50
0.0
 51
90.00000046450008
  0
LINE
  5
3E4
330
1ED
100
AcDbEntity
  8
LAYER1
  6
Continuous
 62
     7
100
AcDbLine
 10
51.3926127981481
 20
85.7338585281299
 30
0.0
 11
51.3926127981481
 21
85.7338585281299
 31
0.0
  0
LINE
  5
3E5
330
1ED
100
AcDbEntity
  8
LAYER1
  6
Continuous
 62
     7
100
AcDbLine
 10
51.86086279854809
 20
86.92210852812989
 30
0.0
 11
46.3688627981481
 21
86.92210852812989
 31
0.0
  0
ARC
  5
3E6
330
1ED
100
AcDbEntity
  8
LAYER1
  6
Continuous
 62
     7
100
AcDbCircle
 10
51.86086279854809
 20
86.6721085281299
 30
0.0
 40
0.25
100
AcDbArc
 50
0.0
 51
90.00000009730001
  0
LINE
  5
3E7
330
1ED
100
AcDbEntity
  8
LAYER1
  6
Continuous
 62
     7
100
AcDbLine
 10
50.2126127981481
 20
86.17085852812989
 30
0.0
 11
50.2126127981481
 21
86.17085852812989
 31
0.0
  0
LINE
  5
3E8
330
1ED
100
AcDbEntity
  8
LAYER1
  6
Continuous
 62
     7
100
AcDbLine
 10
50.2751127981481
 20
86.2333585281299
 30
0.0
 11
51.33011279864811
 21
86.2333585281299
 31
0.0
  0
ARC
  5
3E9
330
1ED
100
AcDbEntity
  8
LAYER1
  6
Continuous
 62
     7
100
AcDbCircle
 10
50.2751127986481
 20
86.17085852812989
 30
0.0
 40
0.0625
100
AcDbArc
 50
90.0000004645001
 51
180.0
  0
CIRCLE
  5
3EA
330
1ED
100
AcDbEntity
  8
LAYER1
  6
Continuous
 62
     7
100
AcDbCircle
 10
47.61986279884809
 20
86.6721085281299
 30
0.0
 40
0.094
  0
CIRCLE
  5
3EB
330
1ED
100
AcDbEntity
  8
LAYER1
  6
Continuous
 62
     7
100
AcDbCircle
 10
46.6193627987481
 20
86.6721085281299
 30
0.0
 40
0.094
  0
CIRCLE
  5
3EC
330
1ED
100
AcDbEntity
  8
LAYER1
  6
Continuous
 62
     7
100
AcDbCircle
 10
47.11886279864811
 20
85.60910852812991
 30
0.0
 40
0.195
  0
ARC
  5
3ED
330
1ED
100
AcDbEntity
  8
LAYER1
  6
Continuous
 62
     7
100
AcDbCircle
 10
51.33011279864811
 20
86.17085852812989
 30
0.0
 40
0.0625
100
AcDbArc
 50
0.0
 51
90.00000046450008
  0
LINE
  5
3EE
330
1ED
100
AcDbEntity
  8
LAYER1
  6
Continuous
 62
     7
100
AcDbLine
 10
51.3926127981481
 20
86.17085852812989
 30
0.0
 11
51.3926127981481
 21
86.17085852812989
 31
0.0
  0
ARC
  5
3EF
330
1ED
100
AcDbEntity
  8
LAYER1
  6
Continuous
 62
     7
100
AcDbCircle
 10
47.5838627985481
 20
84.7351085281299
 30
0.0
 40
0.195
100
AcDbArc
 50
67.26020922923281
 51
270.5513289264283
  0
CIRCLE
  5
3F0
330
1ED
100
AcDbEntity
  8
LAYER1
  6
Continuous
 62
     7
100
AcDbCircle
 10
46.65386279884812
 20
84.7351085281299
 30
0.0
 40
0.195
  0
CIRCLE
  5
3F4
330
1ED
100
AcDbEntity
  8
LAYER1
  6
Continuous
 62
     7
100
AcDbCircle
 10
48.90036279824812
 20
84.90856480502991
 30
0.0
 40
0.125
  0
LINE
  5
3F5
330
1ED
100
AcDbEntity
  8
LAYER1
  6
Continuous
 62
     7
100
AcDbLine
 10
46.3688627981481
 20
86.92210852812989
 30
0.0
 11
46.3688627981481
 21
81.92210852812989
 31
0.0
  0
LINE
  5
3F6
330
1ED
100
AcDbEntity
  8
LAYER1
  6
Continuous
 62
     7
100
AcDbLine
 10
52.11086279814812
 20
82.17210852812989
 30
0.0
 11
52.11086279814813
 21
83.6593585281299
 31
0.0
  0
CIRCLE
  5
3F7
330
1ED
100
AcDbEntity
  8
LAYER1
  6
Continuous
 62
     7
100
AcDbCircle
 10
47.11886279864811
 20
84.42210852812989
 30
0.0
 40
0.195
  0
ARC
  5
3F8
330
1ED
100
AcDbEntity
  8
0
100
AcDbCircle
 10
49.1813627986481
 20
84.42185852812992
 30
0.0
 40
1.6
100
AcDbArc
 50
28.46113308649923
 51
331.5388669135008
  0
CIRCLE
  5
40F
330
1ED
100
AcDbEntity
  8
0
100
AcDbCircle
 10
52.73636279864811
 20
84.42185852812992
 30
0.0
 40
0.1875
  0
CIRCLE
  5
412
330
1ED
100
AcDbEntity
  8
0
100
AcDbCircle
 10
49.1813627986481
 20
84.42185852812992
 30
0.0
 40
0.1875
  0
ARC
  5
415
330
1ED
100
AcDbEntity
  8
0
100
AcDbCircle
 10
49.2753732153148
 20
84.42185852812992
 30
0.0
 40
1.119010416666682
100
AcDbArc
 50
137.0464180409197
 51
222.9535819590807
  0
LINE
  5
416
330
1ED
100
AcDbEntity
  8
0
100
AcDbLine
 10
57.15636279864812
 20
85.1843585281299
 30
0.0
 11
57.15636279864812
 21
83.6593585281299
 31
0.0
  0
LINE
  5
417
330
1ED
100
AcDbEntity
  8
0
100
AcDbLine
 10
48.45636279864812
 20
83.6593585281299
 30
0.0
 11
50.66371650235174
 21
83.6593585281299
 31
0.0
  0
LINE
  5
418
330
1ED
100
AcDbEntity
  8
0
100
AcDbLine
 10
48.45636279864812
 20
85.1843585281299
 30
0.0
 11
50.6634844035865
 21
85.1843585281299
 31
0.0
  0
LINE
  5
419
330
1ED
100
AcDbEntity
  8
0
100
AcDbLine
 10
50.78167898132146
 20
85.43535852812992
 30
0.0
 11
51.14354661597502
 21
85.43535852812992
 31
0.0
  0
LINE
  5
41A
330
1ED
100
AcDbEntity
  8
0
100
AcDbLine
 10
50.78167898132122
 20
83.41035852812991
 30
0.0
 11
51.14354661597477
 21
83.41035852812991
 31
0.0
  0
LINE
  5
420
330
1ED
100
AcDbEntity
  8
0
100
AcDbLine
 10
50.68234562825906
 20
85.34688610243589
 30
0.0
 11
50.57645056653067
 21
84.43438610243594
 31
0.0
  0
LINE
  5
421
330
1ED
100
AcDbEntity
  8
0
100
AcDbLine
 10
51.24287996903742
 20
85.34688610243589
 30
0.0
 11
51.34877503076583
 21
84.43438610243587
 31
0.0
  0
LINE
  5
422
330
1ED
100
AcDbEntity
  8
0
100
AcDbLine
 10
50.6823456282588
 20
83.49883095382393
 30
0.0
 11
50.57645056653067
 21
84.41133095382395
 31
0.0
  0
LINE
  5
423
330
1ED
100
AcDbEntity
  8
0
100
AcDbLine
 10
51.24287996903717
 20
83.49883095382386
 30
0.0
 11
51.34877503076583
 21
84.41133095382381
 31
0.0
  0
ARC
  5
425
330
1ED
100
AcDbEntity
  8
0
100
AcDbCircle
 10
50.78167898132146
 20
85.33535852812992
 30
0.0
 40
0.1
100
AcDbArc
 50
90.0
 51
173.3804702638489
  0
ARC
  5
426
330
1ED
100
AcDbEntity
  8
0
100
AcDbCircle
 10
51.14354661597502
 20
85.3353585281299
 30
0.0
 40
0.1
100
AcDbArc
 50
6.619529736150617
 51
89.99999999999911
  0
ARC
  5
427
330
1ED
100
AcDbEntity
  8
0
100
AcDbCircle
 10
50.78167898132122
 20
83.51035852812989
 30
0.0
 40
0.1
100
AcDbArc
 50
186.619529736134
 51
270.0000000000007
  0
ARC
  5
428
330
1ED
100
AcDbEntity
  8
0
100
AcDbCircle
 10
51.14354661597477
 20
83.51035852812989
 30
0.0
 40
0.1
100
AcDbArc
 50
270.0000000000009
 51
353.3804702638324
  0
ARC
  5
429
330
1ED
100
AcDbEntity
  8
0
100
AcDbCircle
 10
51.24944167770343
 20
84.42285852812984
 30
0.0
 40
0.1
100
AcDbArc
 50
353.3804702638331
 51
6.619529736150273
  0
ARC
  5
42A
330
1ED
100
AcDbEntity
  8
0
100
AcDbCircle
 10
50.67578391959306
 20
84.42285852812993
 30
0.0
 40
0.1
100
AcDbArc
 50
173.3804702638493
 51
186.6195297361343
  0
LINE
  5
42C
330
1ED
100
AcDbEntity
  8
0
100
AcDbLine
 10
51.26150909494432
 20
83.6593585281299
 30
0.0
 11
57.15636279864812
 21
83.65935852812986
 31
0.0
  0
LINE
  5
42D
330
1ED
100
AcDbEntity
  8
0
100
AcDbLine
 10
51.26174119370997
 20
85.1843585281299
 30
0.0
 11
57.15636279864812
 21
85.1843585281299
 31
0.0
  0
LINE
  5
42E
330
1ED
100
AcDbEntity
  8
LAYER1
  6
Continuous
 62
     7
100
AcDbLine
 10
52.11086279814812
 20
85.1843585281299
 30
0.0
 11
52.11086279814812
 21
86.6721085281299
 31
0.0
  0
LINE
  5
42F
330
1ED
100
AcDbEntity
  8
0
100
AcDbLine
 10
51.16837995424063
 20
85.33824042170641
 30
0.0
 11
51.27427501596903
 21
84.42574042170633
 31
0.0
  0
ARC
  5
430
330
1ED
100
AcDbEntity
  8
0
100
AcDbCircle
 10
51.14354661597502
 20
85.3353585281299
 30
0.0
 40
0.025
100
AcDbArc
 50
6.619529736150617
 51
89.99999999999911
  0
LINE
  5
431
330
1ED
100
AcDbEntity
  8
0
100
AcDbLine
 10
50.78167898132146
 20
85.36035852812991
 30
0.0
 11
51.14354661597502
 21
85.36035852812991
 31
0.0
  0
ARC
  5
432
330
1ED
100
AcDbEntity
  8
0
100
AcDbCircle
 10
50.78167898132146
 20
85.33535852812992
 30
0.0
 40
0.025
100
AcDbArc
 50
90.0
 51
173.3804702638489
  0
LINE
  5
433
330
1ED
100
AcDbEntity
  8
0
100
AcDbLine
 10
50.75684564305586
 20
85.33824042170641
 30
0.0
 11
50.65095058132746
 21
84.42574042170644
 31
0.0
  0
LINE
  5
434
330
1ED
100
AcDbEntity
  8
0
100
AcDbLine
 10
50.75684564305561
 20
83.50747663455342
 30
0.0
 11
50.65095058132746
 21
84.41997663455344
 31
0.0
  0
ARC
  5
435
330
1ED
100
AcDbEntity
  8
0
100
AcDbCircle
 10
50.78167898132122
 20
83.51035852812989
 30
0.0
 40
0.025
100
AcDbArc
 50
186.619529736134
 51
270.0000000000007
  0
LINE
  5
436
330
1ED
100
AcDbEntity
  8
0
100
AcDbLine
 10
50.78167898132122
 20
83.48535852812991
 30
0.0
 11
51.14354661597477
 21
83.48535852812991
 31
0.0
  0
ARC
  5
437
330
1ED
100
AcDbEntity
  8
0
100
AcDbCircle
 10
51.14354661597477
 20
83.51035852812989
 30
0.0
 40
0.025
100
AcDbArc
 50
270.0000000000009
 51
353.3804702638324
  0
LINE
  5
438
330
1ED
100
AcDbEntity
  8
0
100
AcDbLine
 10
51.16837995424037
 20
83.5074766345534
 30
0.0
 11
51.27427501596903
 21
84.41997663455332
 31
0.0
  0
LINE
  5
45A
330
1ED
100
AcDbEntity
  8
0
100
AcDbLine
 10
47.88136279864811
 20
89.12210852812989
 30
0.0
 11
47.88136279864811
 21
86.92210852812989
 31
0.0
  0
LINE
  5
45B
330
1ED
100
AcDbEntity
  8
0
100
AcDbLine
 10
48.00636279864811
 20
89.12210852812989
 30
0.0
 11
48.00636279864811
 21
86.92210852812989
 31
0.0
  0
LINE
  5
45C
330
1ED
100
AcDbEntity
  8
0
100
AcDbLine
 10
48.08136279864811
 20
89.12210852812989
 30
0.0
 11
48.08136279864811
 21
86.92210852812989
 31
0.0
  0
LINE
  5
465
330
1ED
100
AcDbEntity
  8
0
100
AcDbLine
 10
46.10636279864809
 20
89.12210852812989
 30
0.0
 11
46.3688627986481
 21
89.12210852812988
 31
0.0
  0
LINE
  5
466
330
1ED
100
AcDbEntity
  8
0
100
AcDbLine
 10
46.35636279864811
 20
89.12210852812989
 30
0.0
 11
46.35636279864811
 21
80.72210852812991
 31
0.0
  0
LINE
  5
467
330
1ED
100
AcDbEntity
  8
0
100
AcDbLine
 10
46.10636279864809
 20
80.72210852812991
 30
0.0
 11
46.3688627986481
 21
80.72210852812991
 31
0.0
  0
LINE
  5
468
330
1ED
100
AcDbEntity
  8
0
100
AcDbLine
 10
48.1313627986481
 20
89.42210852812989
 30
0.0
 11
48.1313627986481
 21
86.92210852812989
 31
0.0
  0
LINE
  5
469
330
1ED
100
AcDbEntity
  8
0
100
AcDbLine
 10
46.10636279864809
 20
89.42210852812989
 30
0.0
 11
46.10636279864809
 21
79.4221085281299
 31
0.0
  0
LINE
  5
46A
330
1ED
100
AcDbEntity
  8
0
100
AcDbLine
 10
46.10636279864809
 20
79.4221085281299
 30
0.0
 11
46.3688627986481
 21
79.4221085281299
 31
0.0
  0
LINE
  5
46B
330
1ED
100
AcDbEntity
  8
0
100
AcDbLine
 10
46.10636279864809
 20
89.42210852812989
 30
0.0
 11
46.3688627986481
 21
89.42210852812989
 31
0.0
  0
LINE
  5
46C
330
1ED
100
AcDbEntity
  8
0
100
AcDbLine
 10
47.86886279864811
 20
89.42210852812989
 30
0.0
 11
48.1313627986481
 21
89.42210852812989
 31
0.0
  0
LINE
  5
46D
330
1ED
100
AcDbEntity
  8
0
100
AcDbLine
 10
47.86886279864811
 20
89.12210852812988
 30
0.0
 11
48.1313627986481
 21
89.12210852812988
 31
0.0
  0
LINE
  5
46E
330
1ED
100
AcDbEntity
  8
0
100
AcDbLine
 10
48.1313627986481
 20
81.92210852812989
 30
0.0
 11
48.1313627986481
 21
79.4221085281299
 31
0.0
  0
LINE
  5
46F
330
1ED
100
AcDbEntity
  8
0
100
AcDbLine
 10
48.08136279864811
 20
81.92210852812989
 30
0.0
 11
48.08136279864811
 21
80.72210852812991
 31
0.0
  0
LINE
  5
470
330
1ED
100
AcDbEntity
  8
0
100
AcDbLine
 10
48.00636279864811
 20
81.92210852812989
 30
0.0
 11
48.00636279864811
 21
80.72210852812991
 31
0.0
  0
LINE
  5
471
330
1ED
100
AcDbEntity
  8
0
100
AcDbLine
 10
47.88136279864811
 20
81.92210852812989
 30
0.0
 11
47.88136279864811
 21
80.72210852812991
 31
0.0
  0
LINE
  5
472
330
1ED
100
AcDbEntity
  8
0
100
AcDbLine
 10
47.86886279864811
 20
80.72210852812991
 30
0.0
 11
48.1313627986481
 21
80.72210852812991
 31
0.0
  0
LINE
  5
473
330
1ED
100
AcDbEntity
  8
0
100
AcDbLine
 10
47.86886279864811
 20
79.4221085281299
 30
0.0
 11
48.1313627986481
 21
79.4221085281299
 31
0.0
  0
LINE
  5
474
330
1ED
100
AcDbEntity
  8
0
100
AcDbLine
 10
32.71524089603225
 20
84.42210852812989
 30
0.0
 11
32.91524089603225
 21
84.42210852812989
 31
0.0
  0
LINE
  5
475
330
1ED
100
AcDbEntity
  8
0
100
AcDbLine
 10
22.41524089603225
 20
89.97210852812992
 30
0.0
 11
31.91524089603225
 21
89.9721085281299
 31
0.0
  0
ARC
  5
476
330
1ED
100
AcDbEntity
  8
0
100
AcDbCircle
 10
31.91524089603225
 20
89.1721085281299
 30
0.0
 40
0.8
100
AcDbArc
 50
0.0
 51
89.99999999999998
  0
ARC
  5
477
330
1ED
100
AcDbEntity
  8
0
100
AcDbCircle
 10
22.41524089603225
 20
89.1721085281299
 30
0.0
 40
0.8
100
AcDbArc
 50
90.0
 51
179.9999999999999
  0
LINE
  5
478
330
1ED
100
AcDbEntity
  8
0
100
AcDbLine
 10
32.71524089603225
 20
89.1721085281299
 30
0.0
 11
32.71524089603225
 21
84.42210852812989
 31
0.0
  0
LINE
  5
479
330
1ED
100
AcDbEntity
  8
0
100
AcDbLine
 10
21.61524089603225
 20
89.1721085281299
 30
0.0
 11
21.61524089603224
 21
84.42210852812989
 31
0.0
  0
ARC
  5
47A
330
1ED
100
AcDbEntity
  8
0
100
AcDbCircle
 10
31.91524089603225
 20
89.1721085281299
 30
0.0
 40
1.0
100
AcDbArc
 50
0.0
 51
89.99999999999998
  0
ARC
  5
47B
330
1ED
100
AcDbEntity
  8
0
100
AcDbCircle
 10
22.41524089603225
 20
89.1721085281299
 30
0.0
 40
1.0
100
AcDbArc
 50
90.0
 51
179.9999999999999
  0
LINE
  5
47C
330
1ED
100
AcDbEntity
  8
0
100
AcDbLine
 10
21.41524089603226
 20
84.42210852812989
 30
0.0
 11
21.61524089603224
 21
84.42210852812989
 31
0.0
  0
LINE
  5
47D
330
1ED
100
AcDbEntity
  8
0
100
AcDbLine
 10
32.91524089603226
 20
89.1721085281299
 30
0.0
 11
32.91524089603225
 21
84.42210852812989
 31
0.0
  0
LINE
  5
47E
330
1ED
100
AcDbEntity
  8
0
100
AcDbLine
 10
21.41524089603226
 20
89.1721085281299
 30
0.0
 11
21.41524089603225
 21
84.42210852812989
 31
0.0
  0
LINE
  5
47F
330
1ED
100
AcDbEntity
  8
0
100
AcDbLine
 10
22.41524089603225
 20
90.17210852812992
 30
0.0
 11
31.91524089603225
 21
90.17210852812992
 31
0.0
  0
LINE
  5
481
330
1ED
100
AcDbEntity
  8
0
100
AcDbLine
 10
22.41524089603223
 20
78.6721085281299
 30
0.0
 11
31.91524089603223
 21
78.67210852812987
 31
0.0
  0
LINE
  5
482
330
1ED
100
AcDbEntity
  8
0
100
AcDbLine
 10
21.41524089603223
 20
79.67210852812989
 30
0.0
 11
21.41524089603225
 21
84.42210852812989
 31
0.0
  0
LINE
  5
483
330
1ED
100
AcDbEntity
  8
0
100
AcDbLine
 10
32.91524089603224
 20
79.67210852812987
 30
0.0
 11
32.91524089603225
 21
84.42210852812987
 31
0.0
  0
LINE
  5
484
330
1ED
100
AcDbEntity
  8
0
100
AcDbLine
 10
21.41524089603225
 20
84.42210852812989
 30
0.0
 11
21.61524089603224
 21
84.42210852812989
 31
0.0
  0
ARC
  5
485
330
1ED
100
AcDbEntity
  8
0
100
AcDbCircle
 10
22.41524089603224
 20
79.67210852812989
 30
0.0
 40
1.0
100
AcDbArc
 50
179.9999999999998
 51
269.9999999999997
  0
ARC
  5
486
330
1ED
100
AcDbEntity
  8
0
100
AcDbCircle
 10
31.91524089603224
 20
79.67210852812987
 30
0.0
 40
1.0
100
AcDbArc
 50
269.9999999999997
 51
359.9999999999997
  0
LINE
  5
487
330
1ED
100
AcDbEntity
  8
0
100
AcDbLine
 10
21.61524089603223
 20
79.67210852812989
 30
0.0
 11
21.61524089603224
 21
84.42210852812989
 31
0.0
  0
LINE
  5
488
330
1ED
100
AcDbEntity
  8
0
100
AcDbLine
 10
32.71524089603224
 20
79.67210852812987
 30
0.0
 11
32.71524089603225
 21
84.42210852812987
 31
0.0
  0
ARC
  5
489
330
1ED
100
AcDbEntity
  8
0
100
AcDbCircle
 10
22.41524089603224
 20
79.67210852812989
 30
0.0
 40
0.8
100
AcDbArc
 50
179.9999999999998
 51
269.9999999999997
  0
ARC
  5
48A
330
1ED
100
AcDbEntity
  8
0
100
AcDbCircle
 10
31.91524089603224
 20
79.67210852812987
 30
0.0
 40
0.8
100
AcDbArc
 50
269.9999999999997
 51
359.9999999999997
  0
LINE
  5
48B
330
1ED
100
AcDbEntity
  8
0
100
AcDbLine
 10
22.41524089603223
 20
78.8721085281299
 30
0.0
 11
31.91524089603223
 21
78.87210852812987
 31
0.0
  0
LINE
  5
48C
330
1ED
100
AcDbEntity
  8
0
100
AcDbLine
 10
32.71524089603225
 20
84.42210852812987
 30
0.0
 11
32.91524089603225
 21
84.42210852812987
 31
0.0
  0
LINE
  5
4CF
330
1ED
100
AcDbEntity
  8
0
100
AcDbLine
 10
23.25274089603222
 20
80.84710852812989
 30
0.0
 11
24.17774089603219
 21
80.84710852812989
 31
0.0
  0
LINE
  5
4D0
330
1ED
100
AcDbEntity
  8
0
100
AcDbLine
 10
23.25274089603222
 20
81.97210852812991
 30
0.0
 11
24.17774089603219
 21
81.97210852812991
 31
0.0
  0
LINE
  5
4D1
330
1ED
100
AcDbEntity
  8
0
100
AcDbLine
 10
23.25274089603223
 20
82.8221085281299
 30
0.0
 11
24.1777408960322
 21
82.82210852812989
 31
0.0
  0
LINE
  5
4D2
330
1ED
100
AcDbEntity
  8
0
100
AcDbLine
 10
23.25274089603223
 20
83.94710852812989
 30
0.0
 11
24.1777408960322
 21
83.94710852812989
 31
0.0
  0
LINE
  5
4D3
330
1ED
100
AcDbEntity
  8
0
100
AcDbLine
 10
23.25274089603226
 20
84.7971085281299
 30
0.0
 11
24.17774089603222
 21
84.7971085281299
 31
0.0
  0
LINE
  5
4D4
330
1ED
100
AcDbEntity
  8
0
100
AcDbLine
 10
23.25274089603226
 20
85.92210852812989
 30
0.0
 11
24.17774089603222
 21
85.92210852812987
 31
0.0
  0
LINE
  5
4D5
330
1ED
100
AcDbEntity
  8
0
100
AcDbLine
 10
23.25274089603226
 20
86.7721085281299
 30
0.0
 11
24.17774089603223
 21
86.7721085281299
 31
0.0
  0
LINE
  5
4D6
330
1ED
100
AcDbEntity
  8
0
100
AcDbLine
 10
23.25274089603226
 20
87.89710852812991
 30
0.0
 11
24.17774089603223
 21
87.89710852812991
 31
0.0
  0
LINE
  5
4D7
330
1ED
100
AcDbEntity
  8
0
100
AcDbLine
 10
23.25274089603227
 20
88.7471085281299
 30
0.0
 11
24.17774089603224
 21
88.7471085281299
 31
0.0
  0
LINE
  5
4D8
330
1ED
100
AcDbEntity
  8
0
100
AcDbLine
 10
23.25274089603227
 20
80.8721085281299
 30
0.0
 11
24.17774089603224
 21
80.8721085281299
 31
0.0
  0
LINE
  5
4D9
330
1ED
100
AcDbEntity
  8
0
100
AcDbLine
 10
23.25274089603227
 20
80.7721085281299
 30
0.0
 11
24.17774089603224
 21
80.7721085281299
 31
0.0
  0
LINE
  5
4DA
330
1ED
100
AcDbEntity
  8
0
100
AcDbLine
 10
23.25274089603227
 20
88.97210852812991
 30
0.0
 11
24.17774089603224
 21
88.97210852812987
 31
0.0
  0
LINE
  5
4DB
330
1ED
100
AcDbEntity
  8
0
100
AcDbLine
 10
23.25274089603227
 20
89.07210852812992
 30
0.0
 11
24.17774089603224
 21
89.0721085281299
 31
0.0
  0
LINE
  5
4DC
330
1ED
100
AcDbEntity
  8
0
100
AcDbLine
 10
23.25274089603227
 20
89.12210852812988
 30
0.0
 11
23.25274089603227
 21
80.72210852812991
 31
0.0
  0
LINE
  5
4DD
330
1ED
100
AcDbEntity
  8
0
100
AcDbLine
 10
23.10274089603225
 20
89.12210852812988
 30
0.0
 11
23.10274089603225
 21
80.72210852812991
 31
0.0
  0
LINE
  5
4DE
330
1ED
100
AcDbEntity
  8
0
100
AcDbLine
 10
22.95274089603226
 20
89.12210852812988
 30
0.0
 11
22.95274089603226
 21
80.72210852812991
 31
0.0
  0
LINE
  5
4DF
330
1ED
100
AcDbEntity
  8
0
100
AcDbLine
 10
22.82774089603226
 20
89.12210852812988
 30
0.0
 11
22.82774089603226
 21
80.72210852812991
 31
0.0
  0
LINE
  5
4E0
330
1ED
100
AcDbEntity
  8
0
100
AcDbLine
 10
22.75274089603226
 20
89.12210852812988
 30
0.0
 11
22.75274089603226
 21
80.72210852812991
 31
0.0
  0
LINE
  5
4E1
330
1ED
100
AcDbEntity
  8
0
100
AcDbLine
 10
24.32774089603226
 20
89.12210852812988
 30
0.0
 11
24.32774089603225
 21
80.72210852812991
 31
0.0
  0
LINE
  5
4E2
330
1ED
100
AcDbEntity
  8
0
100
AcDbLine
 10
24.47774089603226
 20
89.12210852812988
 30
0.0
 11
24.47774089603226
 21
80.72210852812991
 31
0.0
  0
LINE
  5
4E3
330
1ED
100
AcDbEntity
  8
0
100
AcDbLine
 10
24.60274089603226
 20
89.12210852812988
 30
0.0
 11
24.60274089603226
 21
80.72210852812991
 31
0.0
  0
LINE
  5
4E4
330
1ED
100
AcDbEntity
  8
0
100
AcDbLine
 10
24.67774089603226
 20
89.12210852812988
 30
0.0
 11
24.67774089603226
 21
80.72210852812991
 31
0.0
  0
LINE
  5
4E5
330
1ED
100
AcDbEntity
  8
0
100
AcDbLine
 10
24.17774089603224
 20
89.12210852812988
 30
0.0
 11
24.17774089603224
 21
80.72210852812991
 31
0.0
  0
LINE
  5
4E6
330
1ED
100
AcDbEntity
  8
0
100
AcDbLine
 10
22.70274089603225
 20
89.12210852812988
 30
0.0
 11
24.72774089603225
 21
89.12210852812988
 31
0.0
  0
LINE
  5
4E7
330
1ED
100
AcDbEntity
  8
0
100
AcDbLine
 10
22.70274089603225
 20
80.72210852812991
 30
0.0
 11
24.72774089603225
 21
80.72210852812991
 31
0.0
  0
LINE
  5
4E8
330
1ED
100
AcDbEntity
  8
0
100
AcDbLine
 10
24.72774089603225
 20
89.42210852812989
 30
0.0
 11
24.72774089603225
 21
79.4221085281299
 31
0.0
  0
LINE
  5
4E9
330
1ED
100
AcDbEntity
  8
0
100
AcDbLine
 10
22.70274089603225
 20
89.42210852812989
 30
0.0
 11
22.70274089603225
 21
79.4221085281299
 31
0.0
  0
LINE
  5
4EA
330
1ED
100
AcDbEntity
  8
0
100
AcDbLine
 10
22.70274089603225
 20
79.4221085281299
 30
0.0
 11
24.72774089603225
 21
79.4221085281299
 31
0.0
  0
LINE
  5
4EB
330
1ED
100
AcDbEntity
  8
0
100
AcDbLine
 10
22.70274089603225
 20
89.42210852812989
 30
0.0
 11
24.72774089603225
 21
89.42210852812989
 31
0.0
  0
LINE
  5
4ED
330
1ED
100
AcDbEntity
  8
0
100
AcDbLine
 10
26.7027408960322
 20
80.84710852812989
 30
0.0
 11
27.62774089603218
 21
80.84710852812989
 31
0.0
  0
LINE
  5
4EE
330
1ED
100
AcDbEntity
  8
0
100
AcDbLine
 10
26.70274089603221
 20
81.97210852812991
 30
0.0
 11
27.62774089603218
 21
81.97210852812991
 31
0.0
  0
LINE
  5
4EF
330
1ED
100
AcDbEntity
  8
0
100
AcDbLine
 10
26.70274089603221
 20
82.82210852812989
 30
0.0
 11
27.62774089603218
 21
82.82210852812989
 31
0.0
  0
LINE
  5
4F0
330
1ED
100
AcDbEntity
  8
0
100
AcDbLine
 10
26.70274089603222
 20
83.94710852812989
 30
0.0
 11
27.62774089603219
 21
83.94710852812989
 31
0.0
  0
LINE
  5
4F1
330
1ED
100
AcDbEntity
  8
0
100
AcDbLine
 10
26.70274089603223
 20
84.7971085281299
 30
0.0
 11
27.6277408960322
 21
84.79710852812987
 31
0.0
  0
LINE
  5
4F2
330
1ED
100
AcDbEntity
  8
0
100
AcDbLine
 10
26.70274089603223
 20
85.92210852812987
 30
0.0
 11
27.62774089603221
 21
85.92210852812987
 31
0.0
  0
LINE
  5
4F3
330
1ED
100
AcDbEntity
  8
0
100
AcDbLine
 10
26.70274089603224
 20
86.7721085281299
 30
0.0
 11
27.62774089603221
 21
86.77210852812988
 31
0.0
  0
LINE
  5
4F4
330
1ED
100
AcDbEntity
  8
0
100
AcDbLine
 10
26.70274089603225
 20
87.89710852812991
 30
0.0
 11
27.62774089603222
 21
87.89710852812987
 31
0.0
  0
LINE
  5
4F5
330
1ED
100
AcDbEntity
  8
0
100
AcDbLine
 10
26.70274089603226
 20
88.7471085281299
 30
0.0
 11
27.62774089603222
 21
88.7471085281299
 31
0.0
  0
LINE
  5
4F6
330
1ED
100
AcDbEntity
  8
0
100
AcDbLine
 10
26.70274089603226
 20
80.8721085281299
 30
0.0
 11
27.62774089603222
 21
80.8721085281299
 31
0.0
  0
LINE
  5
4F7
330
1ED
100
AcDbEntity
  8
0
100
AcDbLine
 10
26.70274089603226
 20
80.77210852812989
 30
0.0
 11
27.62774089603222
 21
80.7721085281299
 31
0.0
  0
LINE
  5
4F8
330
1ED
100
AcDbEntity
  8
0
100
AcDbLine
 10
26.70274089603226
 20
88.97210852812987
 30
0.0
 11
27.62774089603222
 21
88.97210852812987
 31
0.0
  0
LINE
  5
4F9
330
1ED
100
AcDbEntity
  8
0
100
AcDbLine
 10
26.70274089603226
 20
89.0721085281299
 30
0.0
 11
27.62774089603222
 21
89.07210852812989
 31
0.0
  0
LINE
  5
4FA
330
1ED
100
AcDbEntity
  8
0
100
AcDbLine
 10
26.70274089603226
 20
89.12210852812988
 30
0.0
 11
26.70274089603226
 21
80.72210852812991
 31
0.0
  0
LINE
  5
4FB
330
1ED
100
AcDbEntity
  8
0
100
AcDbLine
 10
26.55274089603224
 20
89.12210852812988
 30
0.0
 11
26.55274089603224
 21
80.72210852812991
 31
0.0
  0
LINE
  5
4FC
330
1ED
100
AcDbEntity
  8
0
100
AcDbLine
 10
26.40274089603225
 20
89.12210852812988
 30
0.0
 11
26.40274089603225
 21
80.72210852812991
 31
0.0
  0
LINE
  5
4FD
330
1ED
100
AcDbEntity
  8
0
100
AcDbLine
 10
26.27774089603224
 20
89.12210852812988
 30
0.0
 11
26.27774089603224
 21
80.72210852812991
 31
0.0
  0
LINE
  5
4FE
330
1ED
100
AcDbEntity
  8
0
100
AcDbLine
 10
26.20274089603224
 20
89.12210852812988
 30
0.0
 11
26.20274089603224
 21
80.72210852812991
 31
0.0
  0
LINE
  5
4FF
330
1ED
100
AcDbEntity
  8
0
100
AcDbLine
 10
27.77774089603225
 20
89.12210852812988
 30
0.0
 11
27.77774089603224
 21
80.72210852812991
 31
0.0
  0
LINE
  5
500
330
1ED
100
AcDbEntity
  8
0
100
AcDbLine
 10
27.92774089603224
 20
89.12210852812988
 30
0.0
 11
27.92774089603224
 21
80.72210852812991
 31
0.0
  0
LINE
  5
501
330
1ED
100
AcDbEntity
  8
0
100
AcDbLine
 10
28.05274089603225
 20
89.12210852812988
 30
0.0
 11
28.05274089603224
 21
80.72210852812991
 31
0.0
  0
LINE
  5
502
330
1ED
100
AcDbEntity
  8
0
100
AcDbLine
 10
28.12774089603224
 20
89.12210852812988
 30
0.0
 11
28.12774089603224
 21
80.72210852812991
 31
0.0
  0
LINE
  5
503
330
1ED
100
AcDbEntity
  8
0
100
AcDbLine
 10
27.62774089603222
 20
89.12210852812988
 30
0.0
 11
27.62774089603222
 21
80.72210852812991
 31
0.0
  0
LINE
  5
504
330
1ED
100
AcDbEntity
  8
0
100
AcDbLine
 10
26.15274089603224
 20
89.12210852812988
 30
0.0
 11
28.17774089603224
 21
89.12210852812988
 31
0.0
  0
LINE
  5
505
330
1ED
100
AcDbEntity
  8
0
100
AcDbLine
 10
26.15274089603224
 20
80.72210852812991
 30
0.0
 11
28.17774089603224
 21
80.72210852812991
 31
0.0
  0
LINE
  5
506
330
1ED
100
AcDbEntity
  8
0
100
AcDbLine
 10
28.17774089603224
 20
89.42210852812989
 30
0.0
 11
28.17774089603224
 21
79.4221085281299
 31
0.0
  0
LINE
  5
507
330
1ED
100
AcDbEntity
  8
0
100
AcDbLine
 10
26.15274089603224
 20
89.42210852812989
 30
0.0
 11
26.15274089603224
 21
79.4221085281299
 31
0.0
  0
LINE
  5
508
330
1ED
100
AcDbEntity
  8
0
100
AcDbLine
 10
26.15274089603224
 20
79.4221085281299
 30
0.0
 11
28.17774089603224
 21
79.4221085281299
 31
0.0
  0
LINE
  5
509
330
1ED
100
AcDbEntity
  8
0
100
AcDbLine
 10
26.15274089603224
 20
89.42210852812989
 30
0.0
 11
28.17774089603224
 21
89.42210852812989
 31
0.0
  0
LINE
  5
50B
330
1ED
100
AcDbEntity
  8
0
100
AcDbLine
 10
30.15274089603222
 20
80.84710852812989
 30
0.0
 11
31.07774089603219
 21
80.84710852812989
 31
0.0
  0
LINE
  5
50C
330
1ED
100
AcDbEntity
  8
0
100
AcDbLine
 10
30.15274089603222
 20
81.97210852812991
 30
0.0
 11
31.07774089603219
 21
81.97210852812991
 31
0.0
  0
LINE
  5
50D
330
1ED
100
AcDbEntity
  8
0
100
AcDbLine
 10
30.15274089603223
 20
82.82210852812989
 30
0.0
 11
31.0777408960322
 21
82.82210852812989
 31
0.0
  0
LINE
  5
50E
330
1ED
100
AcDbEntity
  8
0
100
AcDbLine
 10
30.15274089603224
 20
83.94710852812989
 30
0.0
 11
31.07774089603221
 21
83.94710852812989
 31
0.0
  0
LINE
  5
50F
330
1ED
100
AcDbEntity
  8
0
100
AcDbLine
 10
30.15274089603225
 20
84.7971085281299
 30
0.0
 11
31.07774089603221
 21
84.79710852812987
 31
0.0
  0
LINE
  5
510
330
1ED
100
AcDbEntity
  8
0
100
AcDbLine
 10
30.15274089603225
 20
85.92210852812987
 30
0.0
 11
31.07774089603222
 21
85.92210852812987
 31
0.0
  0
LINE
  5
511
330
1ED
100
AcDbEntity
  8
0
100
AcDbLine
 10
30.15274089603226
 20
86.7721085281299
 30
0.0
 11
31.07774089603223
 21
86.77210852812988
 31
0.0
  0
LINE
  5
512
330
1ED
100
AcDbEntity
  8
0
100
AcDbLine
 10
30.15274089603227
 20
87.89710852812991
 30
0.0
 11
31.07774089603223
 21
87.89710852812987
 31
0.0
  0
LINE
  5
513
330
1ED
100
AcDbEntity
  8
0
100
AcDbLine
 10
30.15274089603227
 20
88.7471085281299
 30
0.0
 11
31.07774089603224
 21
88.7471085281299
 31
0.0
  0
LINE
  5
514
330
1ED
100
AcDbEntity
  8
0
100
AcDbLine
 10
30.15274089603227
 20
80.8721085281299
 30
0.0
 11
31.07774089603224
 21
80.8721085281299
 31
0.0
  0
LINE
  5
515
330
1ED
100
AcDbEntity
  8
0
100
AcDbLine
 10
30.15274089603227
 20
80.77210852812989
 30
0.0
 11
31.07774089603224
 21
80.7721085281299
 31
0.0
  0
LINE
  5
516
330
1ED
100
AcDbEntity
  8
0
100
AcDbLine
 10
30.15274089603227
 20
88.97210852812987
 30
0.0
 11
31.07774089603224
 21
88.97210852812987
 31
0.0
  0
LINE
  5
517
330
1ED
100
AcDbEntity
  8
0
100
AcDbLine
 10
30.15274089603227
 20
89.0721085281299
 30
0.0
 11
31.07774089603224
 21
89.07210852812989
 31
0.0
  0
LINE
  5
518
330
1ED
100
AcDbEntity
  8
0
100
AcDbLine
 10
30.15274089603227
 20
89.12210852812988
 30
0.0
 11
30.15274089603227
 21
80.72210852812991
 31
0.0
  0
LINE
  5
519
330
1ED
100
AcDbEntity
  8
0
100
AcDbLine
 10
30.00274089603225
 20
89.12210852812988
 30
0.0
 11
30.00274089603226
 21
80.72210852812991
 31
0.0
  0
LINE
  5
51A
330
1ED
100
AcDbEntity
  8
0
100
AcDbLine
 10
29.85274089603226
 20
89.12210852812988
 30
0.0
 11
29.85274089603226
 21
80.72210852812991
 31
0.0
  0
LINE
  5
51B
330
1ED
100
AcDbEntity
  8
0
100
AcDbLine
 10
29.72774089603225
 20
89.12210852812988
 30
0.0
 11
29.72774089603226
 21
80.72210852812991
 31
0.0
  0
LINE
  5
51C
330
1ED
100
AcDbEntity
  8
0
100
AcDbLine
 10
29.65274089603227
 20
89.12210852812988
 30
0.0
 11
29.65274089603227
 21
80.72210852812991
 31
0.0
  0
LINE
  5
51D
330
1ED
100
AcDbEntity
  8
0
100
AcDbLine
 10
31.22774089603226
 20
89.12210852812988
 30
0.0
 11
31.22774089603225
 21
80.72210852812991
 31
0.0
  0
LINE
  5
51E
330
1ED
100
AcDbEntity
  8
0
100
AcDbLine
 10
31.37774089603226
 20
89.12210852812988
 30
0.0
 11
31.37774089603226
 21
80.72210852812991
 31
0.0
  0
LINE
  5
51F
330
1ED
100
AcDbEntity
  8
0
100
AcDbLine
 10
31.50274089603226
 20
89.12210852812988
 30
0.0
 11
31.50274089603226
 21
80.72210852812991
 31
0.0
  0
LINE
  5
520
330
1ED
100
AcDbEntity
  8
0
100
AcDbLine
 10
31.57774089603226
 20
89.12210852812988
 30
0.0
 11
31.57774089603226
 21
80.72210852812991
 31
0.0
  0
LINE
  5
521
330
1ED
100
AcDbEntity
  8
0
100
AcDbLine
 10
31.07774089603224
 20
89.12210852812988
 30
0.0
 11
31.07774089603224
 21
80.72210852812991
 31
0.0
  0
LINE
  5
522
330
1ED
100
AcDbEntity
  8
0
100
AcDbLine
 10
29.60274089603226
 20
89.12210852812988
 30
0.0
 11
31.62774089603225
 21
89.12210852812988
 31
0.0
  0
LINE
  5
523
330
1ED
100
AcDbEntity
  8
0
100
AcDbLine
 10
29.60274089603226
 20
80.72210852812991
 30
0.0
 11
31.62774089603225
 21
80.72210852812991
 31
0.0
  0
LINE
  5
524
330
1ED
100
AcDbEntity
  8
0
100
AcDbLine
 10
31.62774089603225
 20
89.42210852812989
 30
0.0
 11
31.62774089603225
 21
79.4221085281299
 31
0.0
  0
LINE
  5
525
330
1ED
100
AcDbEntity
  8
0
100
AcDbLine
 10
29.60274089603226
 20
89.42210852812989
 30
0.0
 11
29.60274089603226
 21
79.4221085281299
 31
0.0
  0
LINE
  5
526
330
1ED
100
AcDbEntity
  8
0
100
AcDbLine
 10
29.60274089603226
 20
79.4221085281299
 30
0.0
 11
31.62774089603225
 21
79.4221085281299
 31
0.0
  0
LINE
  5
527
330
1ED
100
AcDbEntity
  8
0
100
AcDbLine
 10
29.60274089603226
 20
89.42210852812989
 30
0.0
 11
31.62774089603225
 21
89.42210852812989
 31
0.0
  0
LINE
  5
528
330
1ED
100
AcDbEntity
  8
0
100
AcDbLine
 10
23.21524089603225
 20
89.49710852812989
 30
0.0
 11
24.21524089603225
 21
89.49710852812989
 31
0.0
  0
LINE
  5
529
330
1ED
100
AcDbEntity
  8
0
100
AcDbLine
 10
26.66524089603226
 20
89.49710852812989
 30
0.0
 11
27.66524089603227
 21
89.49710852812989
 31
0.0
  0
LINE
  5
52A
330
1ED
100
AcDbEntity
  8
0
100
AcDbLine
 10
30.11524089603226
 20
89.49710852812989
 30
0.0
 11
31.11524089603226
 21
89.49710852812989
 31
0.0
  0
LINE
  5
52B
330
1ED
100
AcDbEntity
  8
0
100
AcDbLine
 10
23.21524089603221
 20
79.34710852812989
 30
0.0
 11
24.21524089603222
 21
79.34710852812989
 31
0.0
  0
LINE
  5
52C
330
1ED
100
AcDbEntity
  8
0
100
AcDbLine
 10
26.66524089603221
 20
79.34710852812989
 30
0.0
 11
27.66524089603221
 21
79.34710852812988
 31
0.0
  0
LINE
  5
52D
330
1ED
100
AcDbEntity
  8
0
100
AcDbLine
 10
30.11524089603222
 20
79.34710852812989
 30
0.0
 11
31.11524089603221
 21
79.34710852812985
 31
0.0
  0
LINE
  5
52E
330
1ED
100
AcDbEntity
  8
0
100
AcDbLine
 10
23.21524089603225
 20
89.42210852812989
 30
0.0
 11
23.21524089603225
 21
89.49710852812989
 31
0.0
  0
LINE
  5
52F
330
1ED
100
AcDbEntity
  8
0
100
AcDbLine
 10
24.21524089603225
 20
89.42210852812989
 30
0.0
 11
24.21524089603225
 21
89.49710852812989
 31
0.0
  0
LINE
  5
530
330
1ED
100
AcDbEntity
  8
0
100
AcDbLine
 10
26.66524089603226
 20
89.49710852812989
 30
0.0
 11
26.66524089603226
 21
89.42210852812989
 31
0.0
  0
LINE
  5
531
330
1ED
100
AcDbEntity
  8
0
100
AcDbLine
 10
27.66524089603227
 20
89.49710852812989
 30
0.0
 11
27.66524089603227
 21
89.42210852812989
 31
0.0
  0
LINE
  5
532
330
1ED
100
AcDbEntity
  8
0
100
AcDbLine
 10
30.11524089603226
 20
89.42210852812989
 30
0.0
 11
30.11524089603226
 21
89.49710852812989
 31
0.0
  0
LINE
  5
533
330
1ED
100
AcDbEntity
  8
0
100
AcDbLine
 10
31.11524089603226
 20
89.42210852812989
 30
0.0
 11
31.11524089603226
 21
89.49710852812989
 31
0.0
  0
LINE
  5
534
330
1ED
100
AcDbEntity
  8
0
100
AcDbLine
 10
31.11524089603221
 20
79.42210852812984
 30
0.0
 11
31.11524089603221
 21
79.34710852812985
 31
0.0
  0
LINE
  5
535
330
1ED
100
AcDbEntity
  8
0
100
AcDbLine
 10
30.11524089603222
 20
79.42210852812984
 30
0.0
 11
30.11524089603222
 21
79.34710852812985
 31
0.0
  0
LINE
  5
536
330
1ED
100
AcDbEntity
  8
0
100
AcDbLine
 10
27.66524089603221
 20
79.34710852812988
 30
0.0
 11
27.66524089603221
 21
79.42210852812987
 31
0.0
  0
LINE
  5
537
330
1ED
100
AcDbEntity
  8
0
100
AcDbLine
 10
26.66524089603221
 20
79.34710852812988
 30
0.0
 11
26.66524089603221
 21
79.42210852812987
 31
0.0
  0
LINE
  5
538
330
1ED
100
AcDbEntity
  8
0
100
AcDbLine
 10
24.21524089603221
 20
79.42210852812987
 30
0.0
 11
24.21524089603221
 21
79.34710852812989
 31
0.0
  0
LINE
  5
539
330
1ED
100
AcDbEntity
  8
0
100
AcDbLine
 10
23.21524089603221
 20
79.4221085281299
 30
0.0
 11
23.21524089603221
 21
79.34710852812989
 31
0.0
  0
LINE
  5
53A
330
1ED
100
AcDbEntity
  8
0
100
AcDbLine
 10
30.11524089603222
 20
79.34710852812985
 30
0.0
 11
31.11524089603221
 21
79.34710852812985
 31
0.0
  0
LINE
  5
53B
330
1ED
100
AcDbEntity
  8
0
100
AcDbLine
 10
26.66524089603221
 20
79.34710852812988
 30
0.0
 11
27.66524089603221
 21
79.34710852812988
 31
0.0
  0
LINE
  5
53C
330
1ED
100
AcDbEntity
  8
0
100
AcDbLine
 10
23.21524089603222
 20
79.34710852812989
 30
0.0
 11
24.21524089603222
 21
79.34710852812989
 31
0.0
  0
LINE
  5
53D
330
1ED
100
AcDbEntity
  8
0
100
AcDbLine
 10
26.1527408960322
 20
79.42210852812987
 30
0.0
 11
28.1777408960322
 21
79.42210852812987
 31
0.0
  0
ARC
  5
540
330
1ED
100
AcDbEntity
  8
LAYER1
  6
Continuous
 62
     7
100
AcDbCircle
 10
32.47824089583224
 20
82.10910852812991
 30
0.0
 40
0.062
100
AcDbArc
 50
270.0000001583999
 51
0.0
  0
LINE
  5
541
330
1ED
100
AcDbEntity
  8
LAYER1
  6
Continuous
 62
     7
100
AcDbLine
 10
32.54024089603224
 20
86.7351085281299
 30
0.0
 11
32.54024089603224
 21
82.10910852812991
 31
0.0
  0
ARC
  5
542
330
1ED
100
AcDbEntity
  8
LAYER1
  6
Continuous
 62
     7
100
AcDbCircle
 10
32.47824089583224
 20
86.7351085281299
 30
0.0
 40
0.062
100
AcDbArc
 50
0.0
 51
89.9999998416
  0
LINE
  5
543
330
1ED
100
AcDbEntity
  8
LAYER1
  6
Continuous
 62
     7
100
AcDbLine
 10
21.85224089603224
 20
86.7971085281299
 30
0.0
 11
22.70274089603225
 21
86.7971085281299
 31
0.0
  0
LINE
  5
544
330
1ED
100
AcDbEntity
  8
LAYER1
  6
Continuous
 62
     7
100
AcDbLine
 10
21.79024089603224
 20
82.10910852812991
 30
0.0
 11
21.79024089603224
 21
86.7351085281299
 31
0.0
  0
ARC
  5
545
330
1ED
100
AcDbEntity
  8
LAYER1
  6
Continuous
 62
     7
100
AcDbCircle
 10
21.85224089573224
 20
86.7351085281299
 30
0.0
 40
0.062
100
AcDbArc
 50
89.9999996902
 51
180.0
  0
CIRCLE
  5
546
330
1ED
100
AcDbEntity
  8
LAYER1
  6
Continuous
 62
     7
100
AcDbCircle
 10
32.25954089573224
 20
83.17210852812989
 30
0.0
 40
0.1065
  0
CIRCLE
  5
547
330
1ED
100
AcDbEntity
  8
LAYER1
  6
Continuous
 62
     7
100
AcDbCircle
 10
22.07094089573224
 20
83.17210852812989
 30
0.0
 40
0.1065
  0
CIRCLE
  5
548
330
1ED
100
AcDbEntity
  8
LAYER1
  6
Continuous
 62
     7
100
AcDbCircle
 10
32.25954089573224
 20
85.67210852812989
 30
0.0
 40
0.1065
  0
CIRCLE
  5
549
330
1ED
100
AcDbEntity
  8
LAYER1
  6
Continuous
 62
     7
100
AcDbCircle
 10
22.07094089573224
 20
85.67210852812989
 30
0.0
 40
0.1065
  0
ARC
  5
54A
330
1ED
100
AcDbEntity
  8
LAYER1
  6
Continuous
 62
     7
100
AcDbCircle
 10
21.85224089573224
 20
82.10910852812991
 30
0.0
 40
0.062
100
AcDbArc
 50
180.0
 51
270.0000003097999
  0
LINE
  5
54B
330
1ED
100
AcDbEntity
  8
LAYER1
  6
Continuous
 62
     7
100
AcDbLine
 10
32.47824089603224
 20
82.0471085281299
 30
0.0
 11
31.62774089603226
 21
82.04710852812992
 31
0.0
  0
LINE
  5
54C
330
1ED
100
AcDbEntity
  8
LAYER1
  6
Continuous
 62
     7
100
AcDbLine
 10
31.62774089603226
 20
86.7971085281299
 30
0.0
 11
32.47824089603224
 21
86.7971085281299
 31
0.0
  0
LINE
  5
54D
330
1ED
100
AcDbEntity
  8
LAYER1
  6
Continuous
 62
     7
100
AcDbLine
 10
29.60274089603226
 20
82.04710852812992
 30
0.0
 11
28.17774089603224
 21
82.04710852812992
 31
0.0
  0
LINE
  5
54E
330
1ED
100
AcDbEntity
  8
LAYER1
  6
Continuous
 62
     7
100
AcDbLine
 10
26.15274089603224
 20
82.04710852812992
 30
0.0
 11
24.72774089603225
 21
82.04710852812992
 31
0.0
  0
LINE
  5
54F
330
1ED
100
AcDbEntity
  8
LAYER1
  6
Continuous
 62
     7
100
AcDbLine
 10
22.70274089603225
 20
82.04710852812992
 30
0.0
 11
21.85224089603224
 21
82.0471085281299
 31
0.0
  0
LINE
  5
550
330
1ED
100
AcDbEntity
  8
LAYER1
  6
Continuous
 62
     7
100
AcDbLine
 10
24.72774089603225
 20
86.7971085281299
 30
0.0
 11
26.15274089603224
 21
86.7971085281299
 31
0.0
  0
LINE
  5
551
330
1ED
100
AcDbEntity
  8
LAYER1
  6
Continuous
 62
     7
100
AcDbLine
 10
28.17774089603224
 20
86.7971085281299
 30
0.0
 11
29.60274089603226
 21
86.7971085281299
 31
0.0
  0
LINE
  5
5AF
330
1ED
100
AcDbEntity
  8
0
100
AcDbLine
 10
33.10274089603225
 20
86.92210852812989
 30
0.0
 11
32.91524089603226
 21
86.92210852812989
 31
0.0
  0
LINE
  5
5B0
330
1ED
100
AcDbEntity
  8
0
100
AcDbLine
 10
33.10274089603225
 20
81.92210852812987
 30
0.0
 11
32.91524089603224
 21
81.92210852812987
 31
0.0
  0
LINE
  5
5B1
330
1ED
100
AcDbEntity
  8
0
100
AcDbLine
 10
33.10274089603225
 20
84.73510852812987
 30
0.0
 11
32.91524089603226
 21
84.73510852812987
 31
0.0
  0
LINE
  5
5B2
330
1ED
100
AcDbEntity
  8
0
100
AcDbLine
 10
33.10274089603225
 20
82.17210852812987
 30
0.0
 11
32.91524089603224
 21
82.17210852812987
 31
0.0
  0
LINE
  5
5B3
330
1ED
100
AcDbEntity
  8
0
100
AcDbLine
 10
33.10274089603225
 20
83.23510852812987
 30
0.0
 11
32.91524089603225
 21
83.23510852812987
 31
0.0
  0
LINE
  5
5B4
330
1ED
100
AcDbEntity
  8
0
100
AcDbLine
 10
33.10274089603225
 20
84.10910852812987
 30
0.0
 11
32.91524089603225
 21
84.10910852812987
 31
0.0
  0
LINE
  5
5B5
330
1ED
100
AcDbEntity
  8
0
100
AcDbLine
 10
33.10274089603225
 20
85.60910852812986
 30
0.0
 11
32.91524089603226
 21
85.60910852812986
 31
0.0
  0
LINE
  5
5B6
330
1ED
100
AcDbEntity
  8
0
100
AcDbLine
 10
33.10274089603225
 20
86.67210852812988
 30
0.0
 11
32.91524089603226
 21
86.67210852812988
 31
0.0
  0
LINE
  5
5CA
330
1ED
100
AcDbEntity
  8
0
100
AcDbLine
 10
21.61524089603225
 20
85.92210852812989
 30
0.0
 11
22.34024089603224
 21
85.92210852812989
 31
0.0
  0
LINE
  5
5CB
330
1ED
100
AcDbEntity
  8
0
100
AcDbLine
 10
21.61524089603224
 20
82.9221085281299
 30
0.0
 11
22.34024089603224
 21
82.9221085281299
 31
0.0
  0
LINE
  5
5CC
330
1ED
100
AcDbEntity
  8
LAYER1
  6
Continuous
 62
     7
100
AcDbLine
 10
22.34024089603224
 20
82.9221085281299
 30
0.0
 11
22.34024089603224
 21
85.92210852812989
 31
0.0
  0
LINE
  5
5CD
330
1ED
100
AcDbEntity
  8
0
100
AcDbLine
 10
32.71524089603225
 20
85.92210852812987
 30
0.0
 11
31.99024089603225
 21
85.92210852812987
 31
0.0
  0
LINE
  5
5CE
330
1ED
100
AcDbEntity
  8
0
100
AcDbLine
 10
32.71524089603224
 20
82.92210852812987
 30
0.0
 11
31.99024089603224
 21
82.92210852812987
 31
0.0
  0
LINE
  5
5CF
330
1ED
100
AcDbEntity
  8
LAYER1
  6
Continuous
 62
     7
100
AcDbLine
 10
31.99024089603224
 20
82.92210852812987
 30
0.0
 11
31.99024089603225
 21
85.92210852812987
 31
0.0
  0
LINE
  5
5D0
330
1ED
100
AcDbEntity
  8
0
100
AcDbLine
 10
33.10274089603225
 20
84.90856480502989
 30
0.0
 11
32.91524089603226
 21
84.90856480502989
 31
0.0
  0
LINE
  5
5D1
330
1ED
100
AcDbEntity
  8
0
100
AcDbLine
 10
33.10274089603225
 20
83.93515225122987
 30
0.0
 11
32.91524089603225
 21
83.93515225122987
 31
0.0
  0
LINE
  5
5D2
330
1ED
100
AcDbEntity
  8
0
100
AcDbLine
 10
33.10274089603225
 20
86.92210852812989
 30
0.0
 11
33.10274089603225
 21
81.92210852812987
 31
0.0
  0
LINE
  5
5DA
330
1ED
100
AcDbEntity
  8
0
100
AcDbLine
 10
24.21524089603225
 20
89.7971085281299
 30
0.0
 11
24.21524089603225
 21
89.87210852812991
 31
0.0
  0
LINE
  5
5DB
330
1ED
100
AcDbEntity
  8
0
100
AcDbLine
 10
23.21524089603225
 20
89.7971085281299
 30
0.0
 11
23.21524089603225
 21
89.87210852812991
 31
0.0
  0
LINE
  5
5DC
330
1ED
100
AcDbEntity
  8
0
100
AcDbLine
 10
23.21524089603226
 20
89.87210852812991
 30
0.0
 11
24.21524089603226
 21
89.87210852812991
 31
0.0
  0
LINE
  5
5DD
330
1ED
100
AcDbEntity
  8
0
100
AcDbLine
 10
22.70274089603226
 20
89.7971085281299
 30
0.0
 11
24.72774089603225
 21
89.7971085281299
 31
0.0
  0
LINE
  5
5DE
330
1ED
100
AcDbEntity
  8
0
100
AcDbLine
 10
22.70274089603226
 20
89.49710852812989
 30
0.0
 11
24.72774089603225
 21
89.49710852812989
 31
0.0
  0
LINE
  5
5DF
330
1ED
100
AcDbEntity
  8
0
100
AcDbLine
 10
22.70274089603226
 20
89.7971085281299
 30
0.0
 11
22.70274089603226
 21
89.49710852812989
 31
0.0
  0
LINE
  5
5E0
330
1ED
100
AcDbEntity
  8
0
100
AcDbLine
 10
24.72774089603225
 20
89.7971085281299
 30
0.0
 11
24.72774089603225
 21
89.49710852812989
 31
0.0
  0
LINE
  5
5E1
330
1ED
100
AcDbEntity
  8
0
100
AcDbLine
 10
23.21524089603227
 20
89.94710852812991
 30
0.0
 11
24.21524089603227
 21
89.94710852812991
 31
0.0
  0
LINE
  5
5E2
330
1ED
100
AcDbEntity
  8
0
100
AcDbLine
 10
23.21524089603226
 20
89.87210852812991
 30
0.0
 11
23.21524089603226
 21
89.94710852812991
 31
0.0
  0
LINE
  5
5E3
330
1ED
100
AcDbEntity
  8
0
100
AcDbLine
 10
24.21524089603225
 20
89.87210852812991
 30
0.0
 11
24.21524089603226
 21
89.94710852812991
 31
0.0
  0
LINE
  5
5E4
330
1ED
100
AcDbEntity
  8
0
100
AcDbLine
 10
24.72774089603218
 20
79.34710852812989
 30
0.0
 11
24.72774089603218
 21
79.04710852812989
 31
0.0
  0
LINE
  5
5E5
330
1ED
100
AcDbEntity
  8
0
100
AcDbLine
 10
22.70274089603218
 20
79.34710852812989
 30
0.0
 11
22.70274089603218
 21
79.04710852812989
 31
0.0
  0
LINE
  5
5E6
330
1ED
100
AcDbEntity
  8
0
100
AcDbLine
 10
22.70274089603218
 20
79.04710852812989
 30
0.0
 11
24.72774089603218
 21
79.04710852812989
 31
0.0
  0
LINE
  5
5E7
330
1ED
100
AcDbEntity
  8
0
100
AcDbLine
 10
22.70274089603218
 20
79.34710852812989
 30
0.0
 11
24.72774089603218
 21
79.34710852812989
 31
0.0
  0
LINE
  5
5E8
330
1ED
100
AcDbEntity
  8
0
100
AcDbLine
 10
23.21524089603218
 20
79.04710852812989
 30
0.0
 11
24.21524089603218
 21
79.04710852812987
 31
0.0
  0
LINE
  5
5E9
330
1ED
100
AcDbEntity
  8
0
100
AcDbLine
 10
24.21524089603217
 20
78.97210852812989
 30
0.0
 11
24.21524089603217
 21
79.04710852812987
 31
0.0
  0
LINE
  5
5EA
330
1ED
100
AcDbEntity
  8
0
100
AcDbLine
 10
23.21524089603218
 20
78.97210852812989
 30
0.0
 11
23.21524089603217
 21
79.04710852812989
 31
0.0
  0
LINE
  5
5EB
330
1ED
100
AcDbEntity
  8
0
100
AcDbLine
 10
23.21524089603218
 20
78.97210852812989
 30
0.0
 11
24.21524089603217
 21
78.97210852812989
 31
0.0
  0
LINE
  5
5EC
330
1ED
100
AcDbEntity
  8
0
100
AcDbLine
 10
23.21524089603225
 20
78.89710852812988
 30
0.0
 11
24.21524089603225
 21
78.89710852812989
 31
0.0
  0
LINE
  5
5ED
330
1ED
100
AcDbEntity
  8
0
100
AcDbLine
 10
23.21524089603225
 20
78.89710852812988
 30
0.0
 11
23.21524089603225
 21
78.97210852812989
 31
0.0
  0
LINE
  5
5EE
330
1ED
100
AcDbEntity
  8
0
100
AcDbLine
 10
24.21524089603225
 20
78.89710852812989
 30
0.0
 11
24.21524089603225
 21
78.97210852812989
 31
0.0
  0
LINE
  5
5EF
330
1ED
100
AcDbEntity
  8
0
100
AcDbLine
 10
23.21524089603225
 20
78.97210852812989
 30
0.0
 11
24.21524089603225
 21
78.97210852812989
 31
0.0
  0
LINE
  5
5F1
330
1ED
100
AcDbEntity
  8
0
100
AcDbLine
 10
27.66524089603224
 20
89.87210852812991
 30
0.0
 11
27.66524089603224
 21
89.94710852812991
 31
0.0
  0
LINE
  5
5F2
330
1ED
100
AcDbEntity
  8
0
100
AcDbLine
 10
26.66524089603224
 20
89.87210852812991
 30
0.0
 11
26.66524089603224
 21
89.94710852812991
 31
0.0
  0
LINE
  5
5F3
330
1ED
100
AcDbEntity
  8
0
100
AcDbLine
 10
26.66524089603225
 20
89.94710852812991
 30
0.0
 11
27.66524089603225
 21
89.94710852812991
 31
0.0
  0
LINE
  5
5F4
330
1ED
100
AcDbEntity
  8
0
100
AcDbLine
 10
28.17774089603224
 20
89.7971085281299
 30
0.0
 11
28.17774089603224
 21
89.49710852812989
 31
0.0
  0
LINE
  5
5F5
330
1ED
100
AcDbEntity
  8
0
100
AcDbLine
 10
26.15274089603224
 20
89.7971085281299
 30
0.0
 11
26.15274089603224
 21
89.49710852812989
 31
0.0
  0
LINE
  5
5F6
330
1ED
100
AcDbEntity
  8
0
100
AcDbLine
 10
26.15274089603224
 20
89.49710852812989
 30
0.0
 11
28.17774089603224
 21
89.49710852812989
 31
0.0
  0
LINE
  5
5F7
330
1ED
100
AcDbEntity
  8
0
100
AcDbLine
 10
26.15274089603224
 20
89.7971085281299
 30
0.0
 11
28.17774089603224
 21
89.7971085281299
 31
0.0
  0
LINE
  5
5F8
330
1ED
100
AcDbEntity
  8
0
100
AcDbLine
 10
26.66524089603224
 20
89.87210852812991
 30
0.0
 11
27.66524089603224
 21
89.87210852812991
 31
0.0
  0
LINE
  5
5F9
330
1ED
100
AcDbEntity
  8
0
100
AcDbLine
 10
26.66524089603224
 20
89.7971085281299
 30
0.0
 11
26.66524089603224
 21
89.87210852812991
 31
0.0
  0
LINE
  5
5FA
330
1ED
100
AcDbEntity
  8
0
100
AcDbLine
 10
27.66524089603224
 20
89.7971085281299
 30
0.0
 11
27.66524089603224
 21
89.87210852812991
 31
0.0
  0
LINE
  5
5FB
330
1ED
100
AcDbEntity
  8
0
100
AcDbLine
 10
26.66524089603224
 20
89.49710852812989
 30
0.0
 11
27.66524089603224
 21
89.49710852812989
 31
0.0
  0
LINE
  5
5FC
330
1ED
100
AcDbEntity
  8
0
100
AcDbLine
 10
30.11524089603224
 20
89.49710852812989
 30
0.0
 11
31.11524089603225
 21
89.49710852812989
 31
0.0
  0
LINE
  5
5FD
330
1ED
100
AcDbEntity
  8
0
100
AcDbLine
 10
31.11524089603225
 20
89.7971085281299
 30
0.0
 11
31.11524089603225
 21
89.87210852812991
 31
0.0
  0
LINE
  5
5FE
330
1ED
100
AcDbEntity
  8
0
100
AcDbLine
 10
30.11524089603224
 20
89.7971085281299
 30
0.0
 11
30.11524089603224
 21
89.87210852812991
 31
0.0
  0
LINE
  5
5FF
330
1ED
100
AcDbEntity
  8
0
100
AcDbLine
 10
30.11524089603224
 20
89.87210852812991
 30
0.0
 11
31.11524089603225
 21
89.87210852812991
 31
0.0
  0
LINE
  5
600
330
1ED
100
AcDbEntity
  8
0
100
AcDbLine
 10
29.60274089603224
 20
89.7971085281299
 30
0.0
 11
31.62774089603225
 21
89.7971085281299
 31
0.0
  0
LINE
  5
601
330
1ED
100
AcDbEntity
  8
0
100
AcDbLine
 10
29.60274089603224
 20
89.49710852812989
 30
0.0
 11
31.62774089603225
 21
89.49710852812989
 31
0.0
  0
LINE
  5
602
330
1ED
100
AcDbEntity
  8
0
100
AcDbLine
 10
29.60274089603224
 20
89.7971085281299
 30
0.0
 11
29.60274089603224
 21
89.49710852812989
 31
0.0
  0
LINE
  5
603
330
1ED
100
AcDbEntity
  8
0
100
AcDbLine
 10
31.62774089603225
 20
89.7971085281299
 30
0.0
 11
31.62774089603224
 21
89.49710852812989
 31
0.0
  0
LINE
  5
604
330
1ED
100
AcDbEntity
  8
0
100
AcDbLine
 10
30.11524089603225
 20
89.94710852812991
 30
0.0
 11
31.11524089603225
 21
89.94710852812991
 31
0.0
  0
LINE
  5
605
330
1ED
100
AcDbEntity
  8
0
100
AcDbLine
 10
30.11524089603224
 20
89.87210852812991
 30
0.0
 11
30.11524089603224
 21
89.94710852812991
 31
0.0
  0
LINE
  5
606
330
1ED
100
AcDbEntity
  8
0
100
AcDbLine
 10
31.11524089603225
 20
89.87210852812991
 30
0.0
 11
31.11524089603225
 21
89.94710852812991
 31
0.0
  0
LINE
  5
607
330
1ED
100
AcDbEntity
  8
0
100
AcDbLine
 10
30.11524089603226
 20
89.49710852812989
 30
0.0
 11
31.11524089603226
 21
89.49710852812989
 31
0.0
  0
LINE
  5
608
330
1ED
100
AcDbEntity
  8
0
100
AcDbLine
 10
26.66524089603224
 20
78.97210852812989
 30
0.0
 11
27.66524089603224
 21
78.97210852812989
 31
0.0
  0
LINE
  5
609
330
1ED
100
AcDbEntity
  8
0
100
AcDbLine
 10
27.66524089603224
 20
78.89710852812989
 30
0.0
 11
27.66524089603224
 21
78.97210852812989
 31
0.0
  0
LINE
  5
60A
330
1ED
100
AcDbEntity
  8
0
100
AcDbLine
 10
26.66524089603224
 20
78.89710852812988
 30
0.0
 11
26.66524089603224
 21
78.97210852812989
 31
0.0
  0
LINE
  5
60B
330
1ED
100
AcDbEntity
  8
0
100
AcDbLine
 10
26.66524089603224
 20
78.89710852812988
 30
0.0
 11
27.66524089603224
 21
78.89710852812989
 31
0.0
  0
LINE
  5
60C
330
1ED
100
AcDbEntity
  8
0
100
AcDbLine
 10
26.66524089603217
 20
78.97210852812989
 30
0.0
 11
27.66524089603216
 21
78.97210852812989
 31
0.0
  0
LINE
  5
60D
330
1ED
100
AcDbEntity
  8
0
100
AcDbLine
 10
26.66524089603217
 20
78.97210852812989
 30
0.0
 11
26.66524089603216
 21
79.04710852812989
 31
0.0
  0
LINE
  5
60E
330
1ED
100
AcDbEntity
  8
0
100
AcDbLine
 10
27.66524089603216
 20
78.97210852812989
 30
0.0
 11
27.66524089603216
 21
79.04710852812987
 31
0.0
  0
LINE
  5
60F
330
1ED
100
AcDbEntity
  8
0
100
AcDbLine
 10
26.66524089603217
 20
79.04710852812989
 30
0.0
 11
27.66524089603217
 21
79.04710852812987
 31
0.0
  0
LINE
  5
610
330
1ED
100
AcDbEntity
  8
0
100
AcDbLine
 10
26.15274089603217
 20
79.34710852812989
 30
0.0
 11
28.17774089603217
 21
79.34710852812989
 31
0.0
  0
LINE
  5
611
330
1ED
100
AcDbEntity
  8
0
100
AcDbLine
 10
26.15274089603217
 20
79.04710852812989
 30
0.0
 11
28.17774089603217
 21
79.04710852812989
 31
0.0
  0
LINE
  5
612
330
1ED
100
AcDbEntity
  8
0
100
AcDbLine
 10
26.15274089603217
 20
79.34710852812989
 30
0.0
 11
26.15274089603217
 21
79.04710852812989
 31
0.0
  0
LINE
  5
613
330
1ED
100
AcDbEntity
  8
0
100
AcDbLine
 10
28.17774089603217
 20
79.34710852812989
 30
0.0
 11
28.17774089603217
 21
79.04710852812989
 31
0.0
  0
LINE
  5
614
330
1ED
100
AcDbEntity
  8
0
100
AcDbLine
 10
26.66524089603221
 20
79.34710852812989
 30
0.0
 11
27.66524089603221
 21
79.34710852812989
 31
0.0
  0
LINE
  5
615
330
1ED
100
AcDbEntity
  8
0
100
AcDbLine
 10
26.6652408960322
 20
79.34710852812989
 30
0.0
 11
27.66524089603221
 21
79.34710852812989
 31
0.0
  0
LINE
  5
616
330
1ED
100
AcDbEntity
  8
0
100
AcDbLine
 10
30.11524089603222
 20
79.34710852812989
 30
0.0
 11
31.11524089603221
 21
79.34710852812989
 31
0.0
  0
LINE
  5
617
330
1ED
100
AcDbEntity
  8
0
100
AcDbLine
 10
30.11524089603222
 20
79.34710852812989
 30
0.0
 11
31.11524089603221
 21
79.34710852812989
 31
0.0
  0
LINE
  5
618
330
1ED
100
AcDbEntity
  8
0
100
AcDbLine
 10
31.62774089603218
 20
79.34710852812989
 30
0.0
 11
31.62774089603217
 21
79.04710852812989
 31
0.0
  0
LINE
  5
619
330
1ED
100
AcDbEntity
  8
0
100
AcDbLine
 10
29.60274089603219
 20
79.34710852812989
 30
0.0
 11
29.60274089603219
 21
79.04710852812989
 31
0.0
  0
LINE
  5
61A
330
1ED
100
AcDbEntity
  8
0
100
AcDbLine
 10
29.60274089603219
 20
79.04710852812989
 30
0.0
 11
31.62774089603218
 21
79.04710852812989
 31
0.0
  0
LINE
  5
61B
330
1ED
100
AcDbEntity
  8
0
100
AcDbLine
 10
29.60274089603219
 20
79.34710852812989
 30
0.0
 11
31.62774089603218
 21
79.34710852812989
 31
0.0
  0
LINE
  5
61C
330
1ED
100
AcDbEntity
  8
0
100
AcDbLine
 10
30.11524089603219
 20
79.04710852812989
 30
0.0
 11
31.11524089603219
 21
79.04710852812987
 31
0.0
  0
LINE
  5
61D
330
1ED
100
AcDbEntity
  8
0
100
AcDbLine
 10
31.11524089603217
 20
78.97210852812989
 30
0.0
 11
31.11524089603217
 21
79.04710852812987
 31
0.0
  0
LINE
  5
61E
330
1ED
100
AcDbEntity
  8
0
100
AcDbLine
 10
30.11524089603218
 20
78.97210852812989
 30
0.0
 11
30.11524089603217
 21
79.04710852812989
 31
0.0
  0
LINE
  5
61F
330
1ED
100
AcDbEntity
  8
0
100
AcDbLine
 10
30.11524089603218
 20
78.97210852812989
 30
0.0
 11
31.11524089603217
 21
78.97210852812989
 31
0.0
  0
LINE
  5
620
330
1ED
100
AcDbEntity
  8
0
100
AcDbLine
 10
30.11524089603226
 20
78.89710852812988
 30
0.0
 11
31.11524089603225
 21
78.89710852812989
 31
0.0
  0
LINE
  5
621
330
1ED
100
AcDbEntity
  8
0
100
AcDbLine
 10
30.11524089603226
 20
78.89710852812988
 30
0.0
 11
30.11524089603226
 21
78.97210852812989
 31
0.0
  0
LINE
  5
622
330
1ED
100
AcDbEntity
  8
0
100
AcDbLine
 10
31.11524089603225
 20
78.89710852812989
 30
0.0
 11
31.11524089603226
 21
78.97210852812989
 31
0.0
  0
LINE
  5
623
330
1ED
100
AcDbEntity
  8
0
100
AcDbLine
 10
30.11524089603226
 20
78.97210852812989
 30
0.0
 11
31.11524089603226
 21
78.97210852812989
 31
0.0
  0
LINE
  5
624
330
1ED
100
AcDbEntity
  8
0
100
AcDbLine
 10
30.11524089603223
 20
79.34710852812988
 30
0.0
 11
31.11524089603223
 21
79.34710852812988
 31
0.0
  0
LINE
  5
625
330
1ED
100
AcDbEntity
  8
0
100
AcDbLine
 10
30.11524089603223
 20
79.34710852812989
 30
0.0
 11
31.11524089603223
 21
79.34710852812988
 31
0.0
  0
LINE
  5
628
330
1ED
100
AcDbEntity
  8
0
100
AcDbLine
 10
33.10274089603225
 20
85.39710852812987
 30
0.0
 11
33.10274089603225
 21
83.44710852812985
 31
0.0
  0
LINE
  5
62C
330
1ED
100
AcDbEntity
  8
0
100
AcDbLine
 10
33.10274089603225
 20
85.27210852812988
 30
0.0
 11
33.27774089603225
 21
85.27210852812988
 31
0.0
  0
LINE
  5
630
330
1ED
100
AcDbEntity
  8
0
100
AcDbLine
 10
33.10274089603225
 20
85.39710852812987
 30
0.0
 11
33.27774089603225
 21
85.36794186146321
 31
0.0
  0
LINE
  5
631
330
1ED
100
AcDbEntity
  8
0
100
AcDbLine
 10
33.27774089603225
 20
85.36794186146321
 30
0.0
 11
33.27774089603225
 21
83.47627519479653
 31
0.0
  0
LINE
  5
632
330
1ED
100
AcDbEntity
  8
0
100
AcDbLine
 10
33.10274089603225
 20
83.44710852812985
 30
0.0
 11
33.27774089603225
 21
83.47627519479653
 31
0.0
  0
LINE
  5
633
330
1ED
100
AcDbEntity
  8
0
100
AcDbLine
 10
33.10274089603225
 20
83.57210852812986
 30
0.0
 11
33.27774089603225
 21
83.57210852812986
 31
0.0
  0
LINE
  5
634
330
1ED
100
AcDbEntity
  8
0
100
AcDbLine
 10
33.10274089603225
 20
85.07210852812987
 30
0.0
 11
33.27774089603225
 21
85.07210852812987
 31
0.0
  0
LINE
  5
635
330
1ED
100
AcDbEntity
  8
0
100
AcDbLine
 10
33.10274089603225
 20
83.77210852812988
 30
0.0
 11
33.27774089603225
 21
83.77210852812988
 31
0.0
  0
LINE
  5
636
330
1ED
100
AcDbEntity
  8
0
100
AcDbLine
 10
33.10274089603225
 20
84.97210852812989
 30
0.0
 11
33.27774089603225
 21
84.97210852812989
 31
0.0
  0
LINE
  5
637
330
1ED
100
AcDbEntity
  8
0
100
AcDbLine
 10
33.10274089603225
 20
83.87210852812987
 30
0.0
 11
33.27774089603225
 21
83.87210852812987
 31
0.0
  0
LINE
  5
638
330
1ED
100
AcDbEntity
  8
0
100
AcDbLine
 10
33.27774089603225
 20
85.27210852812988
 30
0.0
 11
33.37774089603225
 21
85.27210852812988
 31
0.0
  0
LINE
  5
639
330
1ED
100
AcDbEntity
  8
0
100
AcDbLine
 10
33.27774089603225
 20
83.57210852812986
 30
0.0
 11
33.37774089603227
 21
83.57210852812986
 31
0.0
  0
LINE
  5
63A
330
1ED
100
AcDbEntity
  8
0
100
AcDbLine
 10
33.37774089603225
 20
85.27210852812988
 30
0.0
 11
33.37774089603227
 21
83.57210852812986
 31
0.0
  0
LINE
  5
63B
330
1ED
100
AcDbEntity
  8
0
100
AcDbLine
 10
33.37774089603225
 20
86.03460852812986
 30
0.0
 11
33.37774089603225
 21
82.80960852812986
 31
0.0
  0
LINE
  5
63C
330
1ED
100
AcDbEntity
  8
0
100
AcDbLine
 10
33.42774089603226
 20
86.03460852812986
 30
0.0
 11
33.42774089603226
 21
82.80960852812986
 31
0.0
  0
LINE
  5
63D
330
1ED
100
AcDbEntity
  8
0
100
AcDbLine
 10
33.37774089603225
 20
86.03460852812986
 30
0.0
 11
33.42774089603226
 21
86.03460852812986
 31
0.0
  0
LINE
  5
63F
330
1ED
100
AcDbEntity
  8
0
100
AcDbLine
 10
33.37774089603225
 20
82.80960852812986
 30
0.0
 11
33.42774089603226
 21
82.80960852812986
 31
0.0
  0
LINE
  5
651
330
1ED
100
AcDbEntity
  8
0
100
AcDbLine
 10
21.22774089603225
 20
85.39710852812991
 30
0.0
 11
21.22774089603225
 21
83.44710852812992
 31
0.0
  0
LINE
  5
652
330
1ED
100
AcDbEntity
  8
0
100
AcDbLine
 10
21.22774089603225
 20
85.2721085281299
 30
0.0
 11
21.05274089603224
 21
85.2721085281299
 31
0.0
  0
LINE
  5
653
330
1ED
100
AcDbEntity
  8
0
100
AcDbLine
 10
21.22774089603225
 20
85.39710852812991
 30
0.0
 11
21.05274089603224
 21
85.36794186146325
 31
0.0
  0
LINE
  5
654
330
1ED
100
AcDbEntity
  8
0
100
AcDbLine
 10
21.05274089603224
 20
85.36794186146325
 30
0.0
 11
21.05274089603224
 21
83.47627519479656
 31
0.0
  0
LINE
  5
655
330
1ED
100
AcDbEntity
  8
0
100
AcDbLine
 10
21.22774089603225
 20
83.44710852812992
 30
0.0
 11
21.05274089603224
 21
83.47627519479656
 31
0.0
  0
LINE
  5
656
330
1ED
100
AcDbEntity
  8
0
100
AcDbLine
 10
21.22774089603225
 20
83.57210852812992
 30
0.0
 11
21.05274089603224
 21
83.57210852812992
 31
0.0
  0
LINE
  5
657
330
1ED
100
AcDbEntity
  8
0
100
AcDbLine
 10
21.22774089603225
 20
85.07210852812992
 30
0.0
 11
21.05274089603224
 21
85.07210852812992
 31
0.0
  0
LINE
  5
658
330
1ED
100
AcDbEntity
  8
0
100
AcDbLine
 10
21.22774089603225
 20
83.77210852812991
 30
0.0
 11
21.05274089603224
 21
83.77210852812991
 31
0.0
  0
LINE
  5
659
330
1ED
100
AcDbEntity
  8
0
100
AcDbLine
 10
21.22774089603225
 20
84.9721085281299
 30
0.0
 11
21.05274089603224
 21
84.9721085281299
 31
0.0
  0
LINE
  5
65A
330
1ED
100
AcDbEntity
  8
0
100
AcDbLine
 10
21.22774089603225
 20
83.87210852812989
 30
0.0
 11
21.05274089603224
 21
83.87210852812989
 31
0.0
  0
LINE
  5
65B
330
1ED
100
AcDbEntity
  8
0
100
AcDbLine
 10
21.05274089603224
 20
85.2721085281299
 30
0.0
 11
20.95274089603224
 21
85.2721085281299
 31
0.0
  0
LINE
  5
65C
330
1ED
100
AcDbEntity
  8
0
100
AcDbLine
 10
21.05274089603224
 20
83.57210852812992
 30
0.0
 11
20.95274089603223
 21
83.57210852812992
 31
0.0
  0
LINE
  5
65D
330
1ED
100
AcDbEntity
  8
0
100
AcDbLine
 10
20.95274089603224
 20
85.2721085281299
 30
0.0
 11
20.95274089603223
 21
83.57210852812992
 31
0.0
  0
LINE
  5
65E
330
1ED
100
AcDbEntity
  8
0
100
AcDbLine
 10
20.95274089603224
 20
86.03460852812991
 30
0.0
 11
20.95274089603224
 21
82.8096085281299
 31
0.0
  0
LINE
  5
65F
330
1ED
100
AcDbEntity
  8
0
100
AcDbLine
 10
20.90274089603224
 20
86.03460852812991
 30
0.0
 11
20.90274089603224
 21
82.8096085281299
 31
0.0
  0
LINE
  5
660
330
1ED
100
AcDbEntity
  8
0
100
AcDbLine
 10
20.95274089603224
 20
86.03460852812991
 30
0.0
 11
20.90274089603224
 21
86.03460852812991
 31
0.0
  0
LINE
  5
661
330
1ED
100
AcDbEntity
  8
0
100
AcDbLine
 10
20.95274089603224
 20
82.8096085281299
 30
0.0
 11
20.90274089603224
 21
82.8096085281299
 31
0.0
  0
LINE
  5
662
330
1ED
100
AcDbEntity
  8
0
100
AcDbLine
 10
5.828185106553092
 20
79.4221085281299
 30
0.0
 11
6.090685106553081
 21
79.4221085281299
 31
0.0
  0
LINE
  5
663
330
1ED
100
AcDbEntity
  8
0
100
AcDbLine
 10
5.828185106553092
 20
80.72210852812991
 30
0.0
 11
6.090685106553081
 21
80.72210852812991
 31
0.0
  0
LINE
  5
664
330
1ED
100
AcDbEntity
  8
0
100
AcDbLine
 10
5.840685106553081
 20
81.92210852812989
 30
0.0
 11
5.840685106553081
 21
80.72210852812991
 31
0.0
  0
LINE
  5
665
330
1ED
100
AcDbEntity
  8
0
100
AcDbLine
 10
5.965685106553081
 20
81.92210852812989
 30
0.0
 11
5.965685106553081
 21
80.72210852812991
 31
0.0
  0
LINE
  5
666
330
1ED
100
AcDbEntity
  8
0
100
AcDbLine
 10
6.040685106553083
 20
81.92210852812989
 30
0.0
 11
6.040685106553083
 21
80.72210852812991
 31
0.0
  0
LINE
  5
667
330
1ED
100
AcDbEntity
  8
0
100
AcDbLine
 10
6.090685106553081
 20
81.92210852812989
 30
0.0
 11
6.090685106553081
 21
79.4221085281299
 31
0.0
  0
LINE
  5
668
330
1ED
100
AcDbEntity
  8
0
100
AcDbLine
 10
5.828185106553092
 20
89.12210852812988
 30
0.0
 11
6.090685106553081
 21
89.12210852812988
 31
0.0
  0
LINE
  5
669
330
1ED
100
AcDbEntity
  8
0
100
AcDbLine
 10
5.828185106553092
 20
89.42210852812989
 30
0.0
 11
6.090685106553081
 21
89.42210852812989
 31
0.0
  0
LINE
  5
66A
330
1ED
100
AcDbEntity
  8
0
100
AcDbLine
 10
4.065685106553075
 20
89.42210852812989
 30
0.0
 11
4.328185106553092
 21
89.42210852812989
 31
0.0
  0
LINE
  5
66B
330
1ED
100
AcDbEntity
  8
0
100
AcDbLine
 10
4.065685106553075
 20
79.4221085281299
 30
0.0
 11
4.328185106553092
 21
79.4221085281299
 31
0.0
  0
LINE
  5
66C
330
1ED
100
AcDbEntity
  8
0
100
AcDbLine
 10
4.065685106553075
 20
89.42210852812989
 30
0.0
 11
4.065685106553075
 21
79.4221085281299
 31
0.0
  0
LINE
  5
66D
330
1ED
100
AcDbEntity
  8
0
100
AcDbLine
 10
6.090685106553081
 20
89.42210852812989
 30
0.0
 11
6.090685106553081
 21
86.92210852812989
 31
0.0
  0
LINE
  5
66E
330
1ED
100
AcDbEntity
  8
0
100
AcDbLine
 10
4.065685106553075
 20
80.72210852812991
 30
0.0
 11
4.328185106553092
 21
80.72210852812991
 31
0.0
  0
LINE
  5
66F
330
1ED
100
AcDbEntity
  8
0
100
AcDbLine
 10
4.315685106553075
 20
89.12210852812989
 30
0.0
 11
4.315685106553075
 21
80.72210852812991
 31
0.0
  0
LINE
  5
670
330
1ED
100
AcDbEntity
  8
0
100
AcDbLine
 10
4.065685106553075
 20
89.12210852812989
 30
0.0
 11
4.328185106553092
 21
89.12210852812988
 31
0.0
  0
LINE
  5
671
330
1ED
100
AcDbEntity
  8
0
100
AcDbLine
 10
6.040685106553083
 20
89.12210852812989
 30
0.0
 11
6.040685106553083
 21
86.92210852812989
 31
0.0
  0
LINE
  5
672
330
1ED
100
AcDbEntity
  8
0
100
AcDbLine
 10
5.965685106553081
 20
89.12210852812989
 30
0.0
 11
5.965685106553081
 21
86.92210852812989
 31
0.0
  0
LINE
  5
673
330
1ED
100
AcDbEntity
  8
0
100
AcDbLine
 10
5.840685106553081
 20
89.12210852812989
 30
0.0
 11
5.840685106553081
 21
86.92210852812989
 31
0.0
  0
LINE
  5
674
330
1ED
100
AcDbEntity
  8
0
100
AcDbLine
 10
8.055067000129596
 20
86.40887568372216
 30
0.0
 11
7.142567000129659
 21
86.51477074545082
 31
0.0
  0
ARC
  5
675
330
1ED
100
AcDbEntity
  8
0
100
AcDbCircle
 10
8.052185106553096
 20
86.38404234545657
 30
0.0
 40
0.025
100
AcDbArc
 50
0.0000000000008793
 51
83.38047026383248
  0
LINE
  5
676
330
1ED
100
AcDbEntity
  8
0
100
AcDbLine
 10
8.077185106553088
 20
86.02217471080299
 30
0.0
 11
8.077185106553088
 21
86.38404234545657
 31
0.0
  0
ARC
  5
677
330
1ED
100
AcDbEntity
  8
0
100
AcDbCircle
 10
8.052185106553096
 20
86.02217471080299
 30
0.0
 40
0.025
100
AcDbArc
 50
276.6195297361341
 51
0.0000000000007994
  0
LINE
  5
678
330
1ED
100
AcDbEntity
  8
0
100
AcDbLine
 10
8.05506700012958
 20
85.99734137253738
 30
0.0
 11
7.142567000129559
 21
85.89144631080927
 31
0.0
  0
LINE
  5
679
330
1ED
100
AcDbEntity
  8
0
100
AcDbLine
 10
6.224303212976592
 20
85.99734137253765
 30
0.0
 11
7.136803212976558
 21
85.89144631080927
 31
0.0
  0
ARC
  5
67A
330
1ED
100
AcDbEntity
  8
0
100
AcDbCircle
 10
6.227185106553092
 20
86.02217471080326
 30
0.0
 40
0.025
100
AcDbArc
 50
180.0
 51
263.3804702638489
  0
LINE
  5
67B
330
1ED
100
AcDbEntity
  8
0
100
AcDbLine
 10
6.202185106553088
 20
86.02217471080326
 30
0.0
 11
6.202185106553102
 21
86.38404234545683
 31
0.0
  0
ARC
  5
67C
330
1ED
100
AcDbEntity
  8
0
100
AcDbCircle
 10
6.227185106553107
 20
86.38404234545683
 30
0.0
 40
0.025
100
AcDbArc
 50
96.61952973615058
 51
179.9999999999991
  0
LINE
  5
67D
330
1ED
100
AcDbEntity
  8
0
100
AcDbLine
 10
6.224303212976592
 20
86.40887568372241
 30
0.0
 11
7.136803212976643
 21
86.51477074545082
 31
0.0
  0
LINE
  5
67F
330
1ED
100
AcDbEntity
  8
0
100
AcDbLine
 10
6.378185106553075
 20
86.50223692319178
 30
0.0
 11
6.378185106553089
 21
92.39685852812993
 31
0.0
  0
LINE
  5
680
330
1ED
100
AcDbEntity
  8
0
100
AcDbLine
 10
7.90318510655311
 20
86.50200482442611
 30
0.0
 11
7.90318510655311
 21
92.39685852812993
 31
0.0
  0
ARC
  5
683
330
1ED
100
AcDbEntity
  8
0
100
AcDbCircle
 10
8.052185106553096
 20
86.38404234545657
 30
0.0
 40
0.1
100
AcDbArc
 50
0.0000000000008793
 51
83.38047026383248
  0
ARC
  5
684
330
1ED
100
AcDbEntity
  8
0
100
AcDbCircle
 10
8.052185106553096
 20
86.02217471080299
 30
0.0
 40
0.1
100
AcDbArc
 50
276.6195297361341
 51
0.0000000000007994
  0
ARC
  5
685
330
1ED
100
AcDbEntity
  8
0
100
AcDbCircle
 10
6.227185106553107
 20
86.38404234545683
 30
0.0
 40
0.1
100
AcDbArc
 50
96.61952973615058
 51
179.9999999999991
  0
ARC
  5
686
330
1ED
100
AcDbEntity
  8
0
100
AcDbCircle
 10
6.227185106553092
 20
86.02217471080326
 30
0.0
 40
0.1
100
AcDbArc
 50
180.0
 51
263.3804702638489
  0
LINE
  5
687
330
1ED
100
AcDbEntity
  8
0
100
AcDbLine
 10
8.063712680859126
 20
86.48337569851895
 30
0.0
 11
7.151212680859187
 21
86.58927076024761
 31
0.0
  0
LINE
  5
688
330
1ED
100
AcDbEntity
  8
0
100
AcDbLine
 10
8.063712680859081
 20
85.92284135774059
 30
0.0
 11
7.151212680859045
 21
85.81694629601244
 31
0.0
  0
LINE
  5
689
330
1ED
100
AcDbEntity
  8
0
100
AcDbLine
 10
6.215657532247092
 20
86.48337569851923
 30
0.0
 11
7.128157532247143
 21
86.58927076024761
 31
0.0
  0
LINE
  5
68A
330
1ED
100
AcDbEntity
  8
0
100
AcDbLine
 10
6.215657532247092
 20
85.92284135774084
 30
0.0
 11
7.128157532247057
 21
85.81694629601249
 31
0.0
  0
LINE
  5
68B
330
1ED
100
AcDbEntity
  8
0
100
AcDbLine
 10
8.152185106553105
 20
86.02217471080299
 30
0.0
 11
8.152185106553091
 21
86.38404234545657
 31
0.0
  0
LINE
  5
68C
330
1ED
100
AcDbEntity
  8
0
100
AcDbLine
 10
6.127185106553099
 20
86.02217471080326
 30
0.0
 11
6.127185106553099
 21
86.38404234545683
 31
0.0
  0
LINE
  5
68D
330
1ED
100
AcDbEntity
  8
0
100
AcDbLine
 10
6.378185106553089
 20
83.6968585281299
 30
0.0
 11
6.378185106553104
 21
85.90398013306829
 31
0.0
  0
LINE
  5
68E
330
1ED
100
AcDbEntity
  8
0
100
AcDbLine
 10
7.903185106553094
 20
83.6968585281299
 30
0.0
 11
7.903185106553094
 21
85.90421223183353
 31
0.0
  0
LINE
  5
68F
330
1ED
100
AcDbEntity
  8
0
100
AcDbLine
 10
6.378185106553089
 20
92.39685852812993
 30
0.0
 11
7.903185106553094
 21
92.39685852812993
 31
0.0
  0
ARC
  5
690
330
1ED
100
AcDbEntity
  8
0
100
AcDbCircle
 10
7.140685106553092
 20
84.51586894479659
 30
0.0
 40
1.119010416666682
100
AcDbArc
 50
227.0464180409197
 51
312.9535819590807
  0
CIRCLE
  5
691
330
1ED
100
AcDbEntity
  8
0
100
AcDbCircle
 10
7.140685106553092
 20
84.42185852812992
 30
0.0
 40
0.1875
  0
CIRCLE
  5
694
330
1ED
100
AcDbEntity
  8
LAYER1
  6
Continuous
 62
     7
100
AcDbCircle
 10
5.078185106553092
 20
84.42210852812989
 30
0.0
 40
0.195
  0
LINE
  5
696
330
1ED
100
AcDbEntity
  8
LAYER1
  6
Continuous
 62
     7
100
AcDbLine
 10
4.328185106053068
 20
86.92210852812989
 30
0.0
 11
4.328185106053068
 21
81.92210852812989
 31
0.0
  0
CIRCLE
  5
697
330
1ED
100
AcDbEntity
  8
LAYER1
  6
Continuous
 62
     7
100
AcDbCircle
 10
6.859685106153093
 20
84.90856480502991
 30
0.0
 40
0.125
  0
CIRCLE
  5
698
330
1ED
100
AcDbEntity
  8
LAYER1
  6
Continuous
 62
     7
100
AcDbCircle
 10
4.613185106753093
 20
84.7351085281299
 30
0.0
 40
0.195
  0
ARC
  5
699
330
1ED
100
AcDbEntity
  8
LAYER1
  6
Continuous
 62
     7
100
AcDbCircle
 10
5.543185106453093
 20
84.7351085281299
 30
0.0
 40
0.195
100
AcDbArc
 50
67.26020922923281
 51
270.5513289264283
  0
LINE
  5
69A
330
1ED
100
AcDbEntity
  8
LAYER1
  6
Continuous
 62
     7
100
AcDbLine
 10
9.351935106053067
 20
86.17085852812989
 30
0.0
 11
9.351935106053067
 21
86.17085852812989
 31
0.0
  0
ARC
  5
69B
330
1ED
100
AcDbEntity
  8
LAYER1
  6
Continuous
 62
     7
100
AcDbCircle
 10
9.28943510655309
 20
86.17085852812989
 30
0.0
 40
0.0625
100
AcDbArc
 50
0.0
 51
90.00000046450008
  0
CIRCLE
  5
69C
330
1ED
100
AcDbEntity
  8
LAYER1
  6
Continuous
 62
     7
100
AcDbCircle
 10
5.078185106553092
 20
85.60910852812991
 30
0.0
 40
0.195
  0
CIRCLE
  5
69D
330
1ED
100
AcDbEntity
  8
LAYER1
  6
Continuous
 62
     7
100
AcDbCircle
 10
4.578685106653067
 20
86.6721085281299
 30
0.0
 40
0.094
  0
CIRCLE
  5
69E
330
1ED
100
AcDbEntity
  8
LAYER1
  6
Continuous
 62
     7
100
AcDbCircle
 10
5.579185106753072
 20
86.6721085281299
 30
0.0
 40
0.094
  0
ARC
  5
69F
330
1ED
100
AcDbEntity
  8
LAYER1
  6
Continuous
 62
     7
100
AcDbCircle
 10
8.234435106553092
 20
86.17085852812989
 30
0.0
 40
0.0625
100
AcDbArc
 50
90.0000004645001
 51
180.0
  0
LINE
  5
6A0
330
1ED
100
AcDbEntity
  8
LAYER1
  6
Continuous
 62
     7
100
AcDbLine
 10
8.234435106053068
 20
86.2333585281299
 30
0.0
 11
9.28943510655309
 21
86.2333585281299
 31
0.0
  0
LINE
  5
6A1
330
1ED
100
AcDbEntity
  8
LAYER1
  6
Continuous
 62
     7
100
AcDbLine
 10
8.171935106053068
 20
86.17085852812989
 30
0.0
 11
8.171935106053068
 21
86.17085852812989
 31
0.0
  0
ARC
  5
6A2
330
1ED
100
AcDbEntity
  8
LAYER1
  6
Continuous
 62
     7
100
AcDbCircle
 10
9.820185106453074
 20
86.6721085281299
 30
0.0
 40
0.25
100
AcDbArc
 50
0.0
 51
90.00000009730001
  0
LINE
  5
6A3
330
1ED
100
AcDbEntity
  8
LAYER1
  6
Continuous
 62
     7
100
AcDbLine
 10
9.390185106053108
 20
86.92210852812989
 30
0.0
 11
4.328185106053068
 21
86.92210852812989
 31
0.0
  0
LINE
  5
6A4
330
1ED
100
AcDbEntity
  8
LAYER1
  6
Continuous
 62
     7
100
AcDbLine
 10
9.351935106053067
 20
85.7338585281299
 30
0.0
 11
9.351935106053067
 21
85.7338585281299
 31
0.0
  0
ARC
  5
6A5
330
1ED
100
AcDbEntity
  8
LAYER1
  6
Continuous
 62
     7
100
AcDbCircle
 10
9.28943510655309
 20
85.7338585281299
 30
0.0
 40
0.0625
100
AcDbArc
 50
0.0
 51
90.00000046450008
  0
LINE
  5
6A6
330
1ED
100
AcDbEntity
  8
LAYER1
  6
Continuous
 62
     7
100
AcDbLine
 10
8.437255100807162
 20
85.35935852812988
 30
0.0
 11
8.643924000430331
 21
85.35935852812988
 31
0.0
  0
LINE
  5
6A7
330
1ED
100
AcDbEntity
  8
LAYER1
  6
Continuous
 62
     7
100
AcDbLine
 10
8.628609180627277
 20
85.2343585281299
 30
0.0
 11
8.519033302764782
 21
85.2343585281299
 31
0.0
  0
ARC
  5
6A8
330
1ED
100
AcDbEntity
  8
LAYER1
  6
Continuous
 62
     7
100
AcDbCircle
 10
8.234435106553092
 20
85.7338585281299
 30
0.0
 40
0.0625
100
AcDbArc
 50
90.0000004645001
 51
180.0
  0
LINE
  5
6A9
330
1ED
100
AcDbEntity
  8
LAYER1
  6
Continuous
 62
     7
100
AcDbLine
 10
8.234435106053068
 20
85.79635852812989
 30
0.0
 11
9.28943510655309
 21
85.79635852812989
 31
0.0
  0
LINE
  5
6AA
330
1ED
100
AcDbEntity
  8
LAYER1
  6
Continuous
 62
     7
100
AcDbLine
 10
8.171935106053068
 20
85.7338585281299
 30
0.0
 11
8.171935106053068
 21
85.7338585281299
 31
0.0
  0
ARC
  5
6AB
330
1ED
100
AcDbEntity
  8
LAYER1
  6
Continuous
 62
     7
100
AcDbCircle
 10
8.234435106553092
 20
85.7338585281299
 30
0.0
 40
0.0625
100
AcDbArc
 50
180.0
 51
269.9999995354999
  0
LINE
  5
6AC
330
1ED
100
AcDbEntity
  8
LAYER1
  6
Continuous
 62
     7
100
AcDbLine
 10
9.28943510655309
 20
85.67135852812993
 30
0.0
 11
8.234435106053068
 21
85.67135852812992
 31
0.0
  0
ARC
  5
6AD
330
1ED
100
AcDbEntity
  8
LAYER1
  6
Continuous
 62
     7
100
AcDbCircle
 10
9.28943510655309
 20
85.7338585281299
 30
0.0
 40
0.0625
100
AcDbArc
 50
269.9999995354999
 51
0.0
  0
ARC
  5
6AE
330
1ED
100
AcDbEntity
  8
LAYER1
  6
Continuous
 62
     7
100
AcDbCircle
 10
8.234435106553092
 20
86.17085852812989
 30
0.0
 40
0.0625
100
AcDbArc
 50
180.0
 51
269.9999995354999
  0
LINE
  5
6AF
330
1ED
100
AcDbEntity
  8
LAYER1
  6
Continuous
 62
     7
100
AcDbLine
 10
9.28943510655309
 20
86.10835852812989
 30
0.0
 11
8.234435106053068
 21
86.10835852812989
 31
0.0
  0
ARC
  5
6B0
330
1ED
100
AcDbEntity
  8
LAYER1
  6
Continuous
 62
     7
100
AcDbCircle
 10
9.28943510655309
 20
86.17085852812989
 30
0.0
 40
0.0625
100
AcDbArc
 50
269.9999995354999
 51
0.0
  0
ARC
  5
6B1
330
1ED
100
AcDbEntity
  8
LAYER1
  6
Continuous
 62
     7
100
AcDbCircle
 10
9.28943510655309
 20
83.1118585281299
 30
0.0
 40
0.0625
100
AcDbArc
 50
269.9999995354999
 51
0.0
  0
LINE
  5
6B2
330
1ED
100
AcDbEntity
  8
LAYER1
  6
Continuous
 62
     7
100
AcDbLine
 10
9.351935106053067
 20
83.1118585281299
 30
0.0
 11
9.351935106053067
 21
83.1118585281299
 31
0.0
  0
ARC
  5
6B3
330
1ED
100
AcDbEntity
  8
LAYER1
  6
Continuous
 62
     7
100
AcDbCircle
 10
9.820185106453074
 20
82.17210852812989
 30
0.0
 40
0.25
100
AcDbArc
 50
269.9999999027
 51
0.0
  0
LINE
  5
6B4
330
1ED
100
AcDbEntity
  8
LAYER1
  6
Continuous
 62
     7
100
AcDbLine
 10
9.390185106053108
 20
81.92210852812989
 30
0.0
 11
4.328185106053068
 21
81.92210852812989
 31
0.0
  0
ARC
  5
6B5
330
1ED
100
AcDbEntity
  8
LAYER1
  6
Continuous
 62
     7
100
AcDbCircle
 10
9.28943510655309
 20
83.1118585281299
 30
0.0
 40
0.0625
100
AcDbArc
 50
0.0
 51
90.00000046450008
  0
LINE
  5
6B7
330
1ED
100
AcDbEntity
  8
LAYER1
  6
Continuous
 62
     7
100
AcDbLine
 10
8.171935106053068
 20
83.54885852812989
 30
0.0
 11
8.171935106053068
 21
83.54885852812989
 31
0.0
  0
CIRCLE
  5
6B9
330
1ED
100
AcDbEntity
  8
LAYER1
  6
Continuous
 62
     7
100
AcDbCircle
 10
5.078185106553092
 20
83.23510852812992
 30
0.0
 40
0.195
  0
CIRCLE
  5
6BA
330
1ED
100
AcDbEntity
  8
LAYER1
  6
Continuous
 62
     7
100
AcDbCircle
 10
4.578685106653067
 20
82.17210852812989
 30
0.0
 40
0.094
  0
CIRCLE
  5
6BB
330
1ED
100
AcDbEntity
  8
LAYER1
  6
Continuous
 62
     7
100
AcDbCircle
 10
5.579185106753072
 20
82.17210852812989
 30
0.0
 40
0.094
  0
ARC
  5
6BC
330
1ED
100
AcDbEntity
  8
LAYER1
  6
Continuous
 62
     7
100
AcDbCircle
 10
9.28943510655309
 20
82.6748585281299
 30
0.0
 40
0.0625
100
AcDbArc
 50
0.0
 51
90.00000046450008
  0
LINE
  5
6BD
330
1ED
100
AcDbEntity
  8
LAYER1
  6
Continuous
 62
     7
100
AcDbLine
 10
9.351935106053067
 20
82.6748585281299
 30
0.0
 11
9.351935106053067
 21
82.6748585281299
 31
0.0
  0
ARC
  5
6BE
330
1ED
100
AcDbEntity
  8
LAYER1
  6
Continuous
 62
     7
100
AcDbCircle
 10
9.28943510655309
 20
82.6748585281299
 30
0.0
 40
0.0625
100
AcDbArc
 50
269.9999995354999
 51
0.0
  0
LINE
  5
6BF
330
1ED
100
AcDbEntity
  8
LAYER1
  6
Continuous
 62
     7
100
AcDbLine
 10
9.28943510655309
 20
82.6123585281299
 30
0.0
 11
8.234435106053068
 21
82.6123585281299
 31
0.0
  0
ARC
  5
6C0
330
1ED
100
AcDbEntity
  8
LAYER1
  6
Continuous
 62
     7
100
AcDbCircle
 10
8.234435106553092
 20
82.6748585281299
 30
0.0
 40
0.0625
100
AcDbArc
 50
180.0
 51
269.9999995354999
  0
CIRCLE
  5
6C1
330
1ED
100
AcDbEntity
  8
LAYER1
  6
Continuous
 62
     7
100
AcDbCircle
 10
4.613185106753093
 20
84.10910852812991
 30
0.0
 40
0.195
  0
ARC
  5
6C2
330
1ED
100
AcDbEntity
  8
LAYER1
  6
Continuous
 62
     7
100
AcDbCircle
 10
5.543185106453093
 20
84.10910852812991
 30
0.0
 40
0.195
100
AcDbArc
 50
89.4595444133399
 51
292.6943774830677
  0
CIRCLE
  5
6C3
330
1ED
100
AcDbEntity
  8
LAYER1
  6
Continuous
 62
     7
100
AcDbCircle
 10
6.859685106153093
 20
83.93515225122991
 30
0.0
 40
0.125
  0
CIRCLE
  5
6C4
330
1ED
100
AcDbEntity
  8
LAYER1
  6
Continuous
 62
     7
100
AcDbCircle
 10
7.702685106453059
 20
84.42185852812992
 30
0.0
 40
0.125
  0
LINE
  5
6C5
330
1ED
100
AcDbEntity
  8
LAYER1
  6
Continuous
 62
     7
100
AcDbLine
 10
8.171935106053068
 20
82.6748585281299
 30
0.0
 11
8.171935106053068
 21
82.6748585281299
 31
0.0
  0
LINE
  5
6C6
330
1ED
100
AcDbEntity
  8
LAYER1
  6
Continuous
 62
     7
100
AcDbLine
 10
8.234435106053068
 20
82.7373585281299
 30
0.0
 11
9.28943510655309
 21
82.7373585281299
 31
0.0
  0
ARC
  5
6C7
330
1ED
100
AcDbEntity
  8
LAYER1
  6
Continuous
 62
     7
100
AcDbCircle
 10
8.234435106553092
 20
82.6748585281299
 30
0.0
 40
0.0625
100
AcDbArc
 50
90.0000004645001
 51
180.0
  0
ARC
  5
6C8
330
1ED
100
AcDbEntity
  8
LAYER1
  6
Continuous
 62
     7
100
AcDbCircle
 10
8.234435106553092
 20
83.1118585281299
 30
0.0
 40
0.0625
100
AcDbArc
 50
90.0000004645001
 51
180.0
  0
LINE
  5
6C9
330
1ED
100
AcDbEntity
  8
LAYER1
  6
Continuous
 62
     7
100
AcDbLine
 10
8.234435106053068
 20
83.17435852812989
 30
0.0
 11
9.28943510655309
 21
83.17435852812989
 31
0.0
  0
LINE
  5
6CA
330
1ED
100
AcDbEntity
  8
LAYER1
  6
Continuous
 62
     7
100
AcDbLine
 10
8.171935106053068
 20
83.1118585281299
 30
0.0
 11
8.171935106053068
 21
83.1118585281299
 31
0.0
  0
ARC
  5
6CB
330
1ED
100
AcDbEntity
  8
LAYER1
  6
Continuous
 62
     7
100
AcDbCircle
 10
8.234435106553092
 20
83.1118585281299
 30
0.0
 40
0.0625
100
AcDbArc
 50
180.0
 51
269.9999995354999
  0
LINE
  5
6CC
330
1ED
100
AcDbEntity
  8
LAYER1
  6
Continuous
 62
     7
100
AcDbLine
 10
9.28943510655309
 20
83.04935852812992
 30
0.0
 11
8.234435106053068
 21
83.04935852812992
 31
0.0
  0
CIRCLE
  5
6CD
330
1ED
100
AcDbEntity
  8
0
100
AcDbCircle
 10
7.140685106553092
 20
84.42185852812992
 30
0.0
 40
0.245
  0
LINE
  5
6CE
330
1ED
100
AcDbEntity
  8
0
100
AcDbLine
 10
4.328185106553092
 20
90.17210852812992
 30
0.0
 11
5.828185106553092
 21
90.17210852812992
 31
0.0
  0
LINE
  5
6CF
330
1ED
100
AcDbEntity
  8
0
100
AcDbLine
 10
5.828185106553092
 20
90.17210852812992
 30
0.0
 11
5.828185106553092
 21
86.92210852812989
 31
0.0
  0
LINE
  5
6D0
330
1ED
100
AcDbEntity
  8
0
100
AcDbLine
 10
4.328185106553092
 20
90.17210852812992
 30
0.0
 11
4.328185106553092
 21
84.42210852812989
 31
0.0
  0
CIRCLE
  5
6D1
330
1ED
100
AcDbEntity
  8
0
100
AcDbCircle
 10
4.577185106353113
 20
86.6721085281299
 30
0.0
 40
0.125
  0
CIRCLE
  5
6D2
330
1ED
100
AcDbEntity
  8
0
100
AcDbCircle
 10
5.577685106453087
 20
86.6721085281299
 30
0.0
 40
0.125
  0
CIRCLE
  5
6D3
330
1ED
100
AcDbEntity
  8
0
100
AcDbCircle
 10
5.078185106553092
 20
85.60910852812991
 30
0.0
 40
0.125
  0
ARC
  5
6D4
330
1ED
100
AcDbEntity
  8
0
100
AcDbCircle
 10
5.543185106353091
 20
84.7351085281299
 30
0.0
 40
0.125
100
AcDbArc
 50
63.84418517910391
 51
273.9673529779106
  0
CIRCLE
  5
6D5
330
1ED
100
AcDbEntity
  8
0
100
AcDbCircle
 10
4.613185106653077
 20
84.7351085281299
 30
0.0
 40
0.125
  0
CIRCLE
  5
6D6
330
1ED
100
AcDbEntity
  8
0
100
AcDbCircle
 10
4.613185106653077
 20
84.10910852812991
 30
0.0
 40
0.125
  0
ARC
  5
6D7
330
1ED
100
AcDbEntity
  8
0
100
AcDbCircle
 10
5.543185106353091
 20
84.10910852812991
 30
0.0
 40
0.125
100
AcDbArc
 50
86.06009701427936
 51
296.0938248807768
  0
CIRCLE
  5
6D8
330
1ED
100
AcDbEntity
  8
0
100
AcDbCircle
 10
5.078185106553092
 20
83.23510852812992
 30
0.0
 40
0.125
  0
CIRCLE
  5
6D9
330
1ED
100
AcDbEntity
  8
0
100
AcDbCircle
 10
5.577685106453087
 20
82.17210852812989
 30
0.0
 40
0.125
  0
CIRCLE
  5
6DA
330
1ED
100
AcDbEntity
  8
0
100
AcDbCircle
 10
4.577185106353113
 20
82.17210852812989
 30
0.0
 40
0.125
  0
LINE
  5
6DB
330
1ED
100
AcDbEntity
  8
0
100
AcDbLine
 10
4.328185106553092
 20
78.6721085281299
 30
0.0
 11
4.328185106553092
 21
84.42210852812989
 31
0.0
  0
LINE
  5
6DC
330
1ED
100
AcDbEntity
  8
0
100
AcDbLine
 10
5.828185106553092
 20
78.6721085281299
 30
0.0
 11
5.828185106553092
 21
81.92210852812989
 31
0.0
  0
LINE
  5
6DD
330
1ED
100
AcDbEntity
  8
0
100
AcDbLine
 10
4.328185106553092
 20
78.6721085281299
 30
0.0
 11
5.828185106553092
 21
78.6721085281299
 31
0.0
  0
LINE
  5
6DE
330
1ED
100
AcDbEntity
  8
LAYER1
  6
Continuous
 62
     7
100
AcDbLine
 10
8.436834878621795
 20
85.35993942462352
 30
0.0
 11
9.28943510655309
 21
85.35993942462352
 31
0.0
  0
LINE
  5
6DF
330
1ED
100
AcDbEntity
  8
LAYER1
  6
Continuous
 62
     7
100
AcDbLine
 10
9.28943510655309
 20
85.23493942462353
 30
0.0
 11
8.518690714581282
 21
85.23493942462353
 31
0.0
  0
ARC
  5
6E0
330
1ED
100
AcDbEntity
  8
LAYER1
  6
Continuous
 62
     7
100
AcDbCircle
 10
9.28943510655309
 20
85.29743942462351
 30
0.0
 40
0.0625
100
AcDbArc
 50
269.9999995354999
 51
0.0
  0
ARC
  5
6E1
330
1ED
100
AcDbEntity
  8
LAYER1
  6
Continuous
 62
     7
100
AcDbCircle
 10
9.28943510655309
 20
85.29743942462351
 30
0.0
 40
0.0625
100
AcDbArc
 50
0.0
 51
90.00000046450008
  0
LINE
  5
6E2
330
1ED
100
AcDbEntity
  8
LAYER1
  6
Continuous
 62
     7
100
AcDbLine
 10
9.351935106053067
 20
85.29743942462351
 30
0.0
 11
9.351935106053067
 21
85.29743942462351
 31
0.0
  0
ARC
  5
6E3
330
1ED
100
AcDbEntity
  8
LAYER1
  6
Continuous
 62
     7
100
AcDbCircle
 10
9.28943510655309
 20
84.86043942462352
 30
0.0
 40
0.0625
100
AcDbArc
 50
269.9999995354999
 51
0.0
  0
LINE
  5
6E4
330
1ED
100
AcDbEntity
  8
LAYER1
  6
Continuous
 62
     7
100
AcDbLine
 10
9.28943510655309
 20
84.79793942462354
 30
0.0
 11
8.695858138499232
 21
84.79793942462356
 31
0.0
  0
LINE
  5
6E7
330
1ED
100
AcDbEntity
  8
LAYER1
  6
Continuous
 62
     7
100
AcDbLine
 10
8.660197507018835
 20
84.92293942462351
 30
0.0
 11
9.28943510655309
 21
84.92293942462351
 31
0.0
  0
ARC
  5
6E9
330
1ED
100
AcDbEntity
  8
LAYER1
  6
Continuous
 62
     7
100
AcDbCircle
 10
9.28943510655309
 20
84.86043942462352
 30
0.0
 40
0.0625
100
AcDbArc
 50
0.0
 51
90.00000046450008
  0
LINE
  5
6EA
330
1ED
100
AcDbEntity
  8
LAYER1
  6
Continuous
 62
     7
100
AcDbLine
 10
9.351935106053067
 20
84.8604394246235
 30
0.0
 11
9.351935106053067
 21
84.8604394246235
 31
0.0
  0
LINE
  5
6EB
330
1ED
100
AcDbEntity
  8
LAYER1
  6
Continuous
 62
     7
100
AcDbLine
 10
9.351935106053067
 20
84.42402032111713
 30
0.0
 11
9.351935106053067
 21
84.42402032111713
 31
0.0
  0
ARC
  5
6EC
330
1ED
100
AcDbEntity
  8
LAYER1
  6
Continuous
 62
     7
100
AcDbCircle
 10
9.28943510655309
 20
84.42402032111713
 30
0.0
 40
0.0625
100
AcDbArc
 50
0.0
 51
90.00000046450008
  0
ARC
  5
6ED
330
1ED
100
AcDbEntity
  8
LAYER1
  6
Continuous
 62
     7
100
AcDbCircle
 10
9.28943510655309
 20
84.42402032111713
 30
0.0
 40
0.0625
100
AcDbArc
 50
269.9999995354999
 51
0.0
  0
LINE
  5
6EE
330
1ED
100
AcDbEntity
  8
LAYER1
  6
Continuous
 62
     7
100
AcDbLine
 10
9.28943510655309
 20
84.36152032111715
 30
0.0
 11
8.739546983256174
 21
84.36152032111715
 31
0.0
  0
LINE
  5
6F2
330
1ED
100
AcDbEntity
  8
LAYER1
  6
Continuous
 62
     7
100
AcDbLine
 10
8.520959746330531
 20
83.61263549411068
 30
0.0
 11
9.289435106046399
 21
83.61310121761075
 31
0.0
  0
LINE
  5
6F5
330
1ED
100
AcDbEntity
  8
LAYER1
  6
Continuous
 62
     7
100
AcDbLine
 10
9.28943510655309
 20
83.48810121761077
 30
0.0
 11
8.439953087014416
 21
83.48810121761077
 31
0.0
  0
ARC
  5
6F6
330
1ED
100
AcDbEntity
  8
LAYER1
  6
Continuous
 62
     7
100
AcDbCircle
 10
9.28943510655309
 20
83.55060121761075
 30
0.0
 40
0.0625
100
AcDbArc
 50
269.9999995354999
 51
0.0
  0
ARC
  5
6F7
330
1ED
100
AcDbEntity
  8
LAYER1
  6
Continuous
 62
     7
100
AcDbCircle
 10
9.28943510655309
 20
83.55060121761075
 30
0.0
 40
0.0625
100
AcDbArc
 50
0.0
 51
90.00000046450008
  0
LINE
  5
6F8
330
1ED
100
AcDbEntity
  8
LAYER1
  6
Continuous
 62
     7
100
AcDbLine
 10
9.351935106053067
 20
83.55060121761075
 30
0.0
 11
9.351935106053067
 21
83.55060121761075
 31
0.0
  0
LINE
  5
6F9
330
1ED
100
AcDbEntity
  8
LAYER1
  6
Continuous
 62
     7
100
AcDbLine
 10
9.351935106053067
 20
83.98702032111714
 30
0.0
 11
9.351935106053067
 21
83.98702032111714
 31
0.0
  0
ARC
  5
6FA
330
1ED
100
AcDbEntity
  8
LAYER1
  6
Continuous
 62
     7
100
AcDbCircle
 10
9.28943510655309
 20
83.98702032111714
 30
0.0
 40
0.0625
100
AcDbArc
 50
0.0
 51
90.00000046450008
  0
LINE
  5
6FC
330
1ED
100
AcDbEntity
  8
LAYER1
  6
Continuous
 62
     7
100
AcDbLine
 10
8.696758453024429
 20
84.04952032111713
 30
0.0
 11
9.28943510655309
 21
84.04952032111713
 31
0.0
  0
LINE
  5
6FF
330
1ED
100
AcDbEntity
  8
LAYER1
  6
Continuous
 62
     7
100
AcDbLine
 10
9.28943510655309
 20
83.92452032111714
 30
0.0
 11
8.661426605903102
 21
83.92452032111714
 31
0.0
  0
ARC
  5
700
330
1ED
100
AcDbEntity
  8
LAYER1
  6
Continuous
 62
     7
100
AcDbCircle
 10
9.28943510655309
 20
83.98702032111714
 30
0.0
 40
0.0625
100
AcDbArc
 50
269.9999995354999
 51
0.0
  0
LINE
  5
701
330
1ED
100
AcDbEntity
  8
LAYER1
  6
Continuous
 62
     7
100
AcDbLine
 10
9.351935106053067
 20
84.42402032111713
 30
0.0
 11
9.351935106053067
 21
84.42402032111713
 31
0.0
  0
ARC
  5
702
330
1ED
100
AcDbEntity
  8
LAYER1
  6
Continuous
 62
     7
100
AcDbCircle
 10
9.28943510655309
 20
84.42402032111715
 30
0.0
 40
0.0625
100
AcDbArc
 50
0.0
 51
90.00000046450008
  0
ARC
  5
703
330
1ED
100
AcDbEntity
  8
LAYER1
  6
Continuous
 62
     7
100
AcDbCircle
 10
9.28943510655309
 20
84.42402032111715
 30
0.0
 40
0.0625
100
AcDbArc
 50
269.9999995354999
 51
0.0
  0
LINE
  5
705
330
1ED
100
AcDbEntity
  8
LAYER1
  6
Continuous
 62
     7
100
AcDbLine
 10
8.739377964023745
 20
84.48652032111713
 30
0.0
 11
9.289435106553076
 21
84.48652032111725
 31
0.0
  0
LINE
  5
708
330
1ED
100
AcDbEntity
  8
0
100
AcDbLine
 10
10.07018510645307
 20
86.6721085281299
 30
0.0
 11
10.07018510645307
 21
82.17210852812989
 31
0.0
  0
ARC
  5
70A
330
1ED
100
AcDbEntity
  8
0
100
AcDbCircle
 10
7.140685106553092
 20
84.42185852812992
 30
0.0
 40
1.6
100
AcDbArc
 50
118.4611330864988
 51
61.5388669135009
  0
LINE
  5
70B
330
1ED
100
AcDbEntity
  8
0
100
AcDbLine
 10
21.70274089603225
 20
92.39685852812993
 30
0.0
 11
32.62774089603226
 21
92.39685852812987
 31
0.0
  0
LINE
  5
70C
330
1ED
100
AcDbEntity
  8
0
100
AcDbLine
 10
20.70274089603224
 20
83.39685852812989
 30
0.0
 11
20.90274089603224
 21
83.39685852812989
 31
0.0
  0
LINE
  5
70D
330
1ED
100
AcDbEntity
  8
0
100
AcDbLine
 10
20.90274089603224
 20
83.39685852812989
 30
0.0
 11
20.90274089603224
 21
91.39685852812993
 31
0.0
  0
LINE
  5
70E
330
1ED
100
AcDbEntity
  8
0
100
AcDbLine
 10
20.70274089603224
 20
83.39685852812989
 30
0.0
 11
20.70274089603224
 21
91.39685852812993
 31
0.0
  0
LINE
  5
70F
330
1ED
100
AcDbEntity
  8
0
100
AcDbLine
 10
21.70274089603228
 20
92.19685852812991
 30
0.0
 11
32.62774089603226
 21
92.19685852812986
 31
0.0
  0
LINE
  5
714
330
1ED
100
AcDbEntity
  8
0
100
AcDbLine
 10
33.42774089603226
 20
83.39685852812989
 30
0.0
 11
33.42774089603226
 21
91.39685852812988
 31
0.0
  0
LINE
  5
715
330
1ED
100
AcDbEntity
  8
0
100
AcDbLine
 10
33.62774089603226
 20
83.39685852812989
 30
0.0
 11
33.62774089603226
 21
91.39685852812988
 31
0.0
  0
LINE
  5
716
330
1ED
100
AcDbEntity
  8
0
100
AcDbLine
 10
33.62774089603226
 20
83.39685852812989
 30
0.0
 11
33.42774089603226
 21
83.39685852812989
 31
0.0
  0
ARC
  5
717
330
1ED
100
AcDbEntity
  8
0
100
AcDbCircle
 10
21.70274089603224
 20
91.39685852812993
 30
0.0
 40
1.0
100
AcDbArc
 50
89.99999999999984
 51
180.0
  0
ARC
  5
718
330
1ED
100
AcDbEntity
  8
0
100
AcDbCircle
 10
32.62774089603226
 20
91.39685852812988
 30
0.0
 40
1.0
100
AcDbArc
 50
0.0
 51
89.99999999999978
  0
ARC
  5
71A
330
1ED
100
AcDbEntity
  8
0
100
AcDbCircle
 10
32.62774089603226
 20
91.39685852812988
 30
0.0
 40
0.8
100
AcDbArc
 50
0.0
 51
89.99999999999978
  0
ARC
  5
71B
330
1ED
100
AcDbEntity
  8
0
100
AcDbCircle
 10
21.70274089603224
 20
91.39685852812993
 30
0.0
 40
0.8
100
AcDbArc
 50
89.99999999999984
 51
180.0
  0
LINE
  5
770
330
1ED
100
AcDbEntity
  8
0
100
AcDbLine
 10
26.95288089927214
 20
92.75284135334995
 30
0.0
 11
26.90758312211021
 21
92.73075045214511
 31
0.0
  0
LINE
  5
771
330
1ED
100
AcDbEntity
  8
0
100
AcDbLine
 10
26.91217802977499
 20
92.78774593173579
 30
0.0
 11
26.95386487106884
 21
92.81966449446748
 31
0.0
  0
ARC
  5
772
330
1ED
100
AcDbEntity
  8
0
100
AcDbCircle
 10
26.84223277905353
 20
91.91598563780431
 30
0.0
 40
0.1141271096744248
100
AcDbArc
 50
270.0
 51
337.1290126614822
  0
LINE
  5
773
330
1ED
100
AcDbEntity
  8
0
100
AcDbLine
 10
26.84223277905353
 20
91.80185852812988
 30
0.0
 11
27.48824901301098
 21
91.80185852812988
 31
0.0
  0
LINE
  5
774
330
1ED
100
AcDbEntity
  8
0
100
AcDbLine
 10
27.00422169696052
 20
93.00375840449921
 30
0.0
 11
26.91234315535304
 21
92.95686691841106
 31
0.0
  0
LINE
  5
775
330
1ED
100
AcDbEntity
  8
0
100
AcDbLine
 10
26.91234315535304
 20
92.95686691841106
 30
0.0
 11
26.80954763937712
 21
92.91805831945676
 31
0.0
  0
LINE
  5
776
330
1ED
100
AcDbEntity
  8
0
100
AcDbLine
 10
26.66524089603228
 20
92.39685852812993
 30
0.0
 11
26.66524089603228
 21
92.89101790158623
 31
0.0
  0
LINE
  5
777
330
1ED
100
AcDbEntity
  8
0
100
AcDbLine
 10
26.90758312211021
 20
92.73075045214511
 30
0.0
 11
26.87629499966865
 21
92.71932059741828
 31
0.0
  0
LINE
  5
778
330
1ED
100
AcDbEntity
  8
0
100
AcDbLine
 10
26.87629499966865
 20
92.71932059741828
 30
0.0
 11
26.85850735541916
 21
92.71757061519179
 31
0.0
  0
LINE
  5
779
330
1ED
100
AcDbEntity
  8
0
100
AcDbLine
 10
26.85850735541916
 20
92.71757061519179
 30
0.0
 11
26.85371101283341
 21
92.72451933148806
 31
0.0
  0
LINE
  5
77A
330
1ED
100
AcDbEntity
  8
0
100
AcDbLine
 10
26.85371101283341
 20
92.72451933148806
 30
0.0
 11
26.86139679538304
 21
92.73918557232923
 31
0.0
  0
LINE
  5
77B
330
1ED
100
AcDbEntity
  8
0
100
AcDbLine
 10
26.86139679538304
 20
92.73918557232923
 30
0.0
 11
26.88105552653965
 21
92.76058816373772
 31
0.0
  0
LINE
  5
77C
330
1ED
100
AcDbEntity
  8
0
100
AcDbLine
 10
26.88105552653965
 20
92.76058816373772
 30
0.0
 11
26.91217802977499
 21
92.78774593173579
 31
0.0
  0
LINE
  5
77D
330
1ED
100
AcDbEntity
  8
0
100
AcDbLine
 10
26.80954763937712
 20
92.91805831945676
 30
0.0
 11
26.69565451418866
 21
92.89264627935979
 31
0.0
  0
LINE
  5
77E
330
1ED
100
AcDbEntity
  8
0
100
AcDbLine
 10
26.69565451418866
 20
92.89264627935979
 30
0.0
 11
26.57048314494345
 21
92.88594446984408
 31
0.0
  0
LINE
  5
77F
330
1ED
100
AcDbEntity
  8
0
100
AcDbLine
 10
26.57048314494345
 20
92.88594446984408
 30
0.0
 11
26.43385289679724
 21
92.90326656263315
 31
0.0
  0
ARC
  5
780
330
1ED
100
AcDbEntity
  8
0
100
AcDbCircle
 10
26.84223277905353
 20
91.91598563780431
 30
0.0
 40
0.1141271096744248
100
AcDbArc
 50
202.8709873385177
 51
270.0
  0
LINE
  5
781
330
1ED
100
AcDbEntity
  8
0
100
AcDbLine
 10
26.73707807719324
 20
91.87162928719571
 30
0.0
 11
26.73707807719324
 21
92.12185852812988
 31
0.0
  0
LINE
  5
782
330
1ED
100
AcDbEntity
  8
0
100
AcDbLine
 10
27.66524089603227
 20
92.39685852812993
 30
0.0
 11
27.6652408960323
 21
93.04606362021644
 31
0.0
  0
LINE
  5
783
330
1ED
100
AcDbEntity
  8
0
100
AcDbLine
 10
27.28121653291447
 20
92.93743397466483
 30
0.0
 11
27.17699487168939
 21
92.88400172662052
 31
0.0
  0
LINE
  5
784
330
1ED
100
AcDbEntity
  8
0
100
AcDbLine
 10
27.05869945439094
 20
92.89358194277786
 30
0.0
 11
27.11614575346082
 21
92.93345998586216
 31
0.0
  0
LINE
  5
785
330
1ED
100
AcDbEntity
  8
0
100
AcDbLine
 10
27.17699487168939
 20
92.88400172662052
 30
0.0
 11
27.08742599228634
 21
92.83181969748095
 31
0.0
  0
LINE
  5
786
330
1ED
100
AcDbEntity
  8
0
100
AcDbLine
 10
27.08742599228634
 20
92.83181969748095
 30
0.0
 11
27.01269750768286
 21
92.78657447501059
 31
0.0
  0
LINE
  5
787
330
1ED
100
AcDbEntity
  8
0
100
AcDbLine
 10
27.0036555864339
 20
92.85529663856392
 30
0.0
 11
27.05869945439094
 21
92.89358194277786
 31
0.0
  0
ARC
  5
788
330
1ED
100
AcDbEntity
  8
0
100
AcDbCircle
 10
27.48824901301098
 20
91.91598563780431
 30
0.0
 40
0.1141271096744248
100
AcDbArc
 50
202.8709873385177
 51
270.0
  0
ARC
  5
789
330
1ED
100
AcDbEntity
  8
0
100
AcDbCircle
 10
27.48824901301098
 20
91.91598563780431
 30
0.0
 40
0.1141271096744248
100
AcDbArc
 50
270.0
 51
337.1290126614822
  0
LINE
  5
78A
330
1ED
100
AcDbEntity
  8
0
100
AcDbLine
 10
27.38174724697838
 20
91.87067231028194
 30
0.0
 11
27.38174724697838
 21
92.12185852812988
 31
0.0
  0
LINE
  5
78B
330
1ED
100
AcDbEntity
  8
0
100
AcDbLine
 10
27.5934037148713
 20
91.87162928719571
 30
0.0
 11
27.5934037148713
 21
92.12185852812988
 31
0.0
  0
LINE
  5
78C
330
1ED
100
AcDbEntity
  8
0
100
AcDbLine
 10
26.94738748091381
 20
91.87162928719571
 30
0.0
 11
26.94661502990355
 21
92.12185852812988
 31
0.0
  0
ARC
  5
78D
330
1ED
100
AcDbEntity
  8
0
100
AcDbCircle
 10
27.16524089603225
 20
92.17685852812989
 30
0.0
 40
0.3750000000000071
100
AcDbArc
 50
234.4831437960985
 51
305.2643896827539
  0
LINE
  5
78E
330
1ED
100
AcDbEntity
  8
0
100
AcDbLine
 10
27.01269750768286
 20
92.78657447501059
 30
0.0
 11
26.95288089927214
 21
92.75284135334995
 31
0.0
  0
LINE
  5
78F
330
1ED
100
AcDbEntity
  8
0
100
AcDbLine
 10
26.95386487106884
 20
92.81966449446748
 30
0.0
 11
27.0036555864339
 21
92.85529663856392
 31
0.0
  0
LINE
  5
790
330
1ED
100
AcDbEntity
  8
0
100
AcDbLine
 10
28.01555011215693
 20
93.02431792670665
 30
0.0
 11
27.84087873648458
 21
93.04993340060331
 31
0.0
  0
LINE
  5
791
330
1ED
100
AcDbEntity
  8
0
100
AcDbLine
 10
27.84087873648458
 20
93.04993340060331
 30
0.0
 11
27.67992207774665
 21
93.04836615458315
 31
0.0
  0
LINE
  5
792
330
1ED
100
AcDbEntity
  8
0
100
AcDbLine
 10
27.67992207774665
 20
93.04836615458315
 30
0.0
 11
27.53286774892063
 21
93.02530277641045
 31
0.0
  0
LINE
  5
793
330
1ED
100
AcDbEntity
  8
0
100
AcDbLine
 10
27.53286774892063
 20
93.02530277641045
 30
0.0
 11
27.39990336298404
 21
92.98642985384958
 31
0.0
  0
LINE
  5
794
330
1ED
100
AcDbEntity
  8
0
100
AcDbLine
 10
27.39990336298404
 20
92.98642985384958
 30
0.0
 11
27.28121653291447
 21
92.93743397466483
 31
0.0
  0
LINE
  5
795
330
1ED
100
AcDbEntity
  8
0
100
AcDbLine
 10
27.11614575346082
 20
92.93345998586216
 30
0.0
 11
27.1731437621644
 21
92.97387034656964
 31
0.0
  0
LINE
  5
796
330
1ED
100
AcDbEntity
  8
0
100
AcDbLine
 10
27.1731437621644
 20
92.97387034656964
 30
0.0
 11
27.22684275902249
 21
93.01375260365313
 31
0.0
  0
LINE
  5
797
330
1ED
100
AcDbEntity
  8
0
100
AcDbLine
 10
27.22684275902249
 20
93.01375260365313
 30
0.0
 11
27.2743920225559
 21
93.05204633586539
 31
0.0
  0
LINE
  5
798
330
1ED
100
AcDbEntity
  8
0
100
AcDbLine
 10
27.2743920225559
 20
93.05204633586539
 30
0.0
 11
27.31294083128551
 21
93.0876911219593
 31
0.0
  0
LINE
  5
799
330
1ED
100
AcDbEntity
  8
0
100
AcDbLine
 10
27.31294083128551
 20
93.0876911219593
 30
0.0
 11
27.34014809942227
 21
93.11960614355404
 31
0.0
  0
LINE
  5
79A
330
1ED
100
AcDbEntity
  8
0
100
AcDbLine
 10
27.34014809942227
 20
93.11960614355404
 30
0.0
 11
27.35571128393741
 21
93.14662899373372
 31
0.0
  0
LINE
  5
79B
330
1ED
100
AcDbEntity
  8
0
100
AcDbLine
 10
27.35571128393741
 20
93.14662899373372
 30
0.0
 11
27.35983747749239
 21
93.16757686844907
 31
0.0
  0
LINE
  5
79C
330
1ED
100
AcDbEntity
  8
0
100
AcDbLine
 10
27.35983747749239
 20
93.16757686844907
 30
0.0
 11
27.35273377274866
 21
93.1812669636505
 31
0.0
  0
LINE
  5
79D
330
1ED
100
AcDbEntity
  8
0
100
AcDbLine
 10
27.35273377274866
 20
93.1812669636505
 30
0.0
 11
27.33460726236755
 21
93.18651647528865
 31
0.0
  0
LINE
  5
79E
330
1ED
100
AcDbEntity
  8
0
100
AcDbLine
 10
27.33460726236755
 20
93.18651647528865
 30
0.0
 11
27.30566503901052
 21
93.18214259931414
 31
0.0
  0
LINE
  5
79F
330
1ED
100
AcDbEntity
  8
0
100
AcDbLine
 10
27.30566503901052
 20
93.18214259931414
 30
0.0
 11
27.26611419533893
 21
93.16696253167744
 31
0.0
  0
LINE
  5
7A0
330
1ED
100
AcDbEntity
  8
0
100
AcDbLine
 10
27.26611419533893
 20
93.16696253167744
 30
0.0
 11
27.21616182401429
 21
93.13979346832908
 31
0.0
  0
LINE
  5
7A1
330
1ED
100
AcDbEntity
  8
0
100
AcDbLine
 10
27.21616182401429
 20
93.13979346832908
 30
0.0
 11
27.15595039644699
 21
93.10053535118193
 31
0.0
  0
LINE
  5
7A2
330
1ED
100
AcDbEntity
  8
0
100
AcDbLine
 10
27.15595039644699
 20
93.10053535118193
 30
0.0
 11
27.08536389904378
 21
93.05341910599734
 31
0.0
  0
LINE
  5
7A3
330
1ED
100
AcDbEntity
  8
0
100
AcDbLine
 10
27.08536389904378
 20
93.05341910599734
 30
0.0
 11
27.00422169696052
 21
93.00375840449921
 31
0.0
  0
LINE
  5
7A4
330
1ED
100
AcDbEntity
  8
BORDER
  6
Continuous
 62
     7
100
AcDbLine
 10
19.62074089603159
 20
86.84827574781143
 30
0.0
 11
20.12574089603159
 21
86.84827574781195
 31
0.0
  0
LINE
  5
7A5
330
1ED
100
AcDbEntity
  8
BORDER
  6
Continuous
 62
     7
100
AcDbLine
 10
19.56074089603191
 20
86.52692482917665
 30
0.0
 11
20.18574089603191
 21
86.5269248291773
 31
0.0
  0
LINE
  5
7A6
330
1ED
100
AcDbEntity
  8
BORDER
  6
Continuous
 62
     7
100
AcDbLine
 10
19.56074089603259
 20
85.85181721343117
 30
0.0
 11
20.18574089603259
 21
85.85181721343181
 31
0.0
  0
LINE
  5
7A7
330
1ED
100
AcDbEntity
  8
BORDER
  6
Continuous
 62
     7
100
AcDbLine
 10
19.62074089603292
 20
85.55439984301612
 30
0.0
 11
20.1257408960329
 21
85.55439984301665
 31
0.0
  0
LINE
  5
7A8
330
1ED
100
AcDbEntity
  8
BORDER
  6
Continuous
 62
     7
100
AcDbLine
 10
19.56074089603161
 20
86.78827574781136
 30
0.0
 11
19.56074089603283
 21
85.61439984301605
 31
0.0
  0
ARC
  5
7A9
330
1ED
100
AcDbEntity
  8
BORDER
  6
Continuous
 62
     7
100
AcDbCircle
 10
19.62074089603284
 20
85.61439984301612
 30
0.0
 40
0.06
100
AcDbArc
 50
180.0000000000586
 51
270.0000000000585
  0
ARC
  5
7AA
330
1ED
100
AcDbEntity
  8
BORDER
  6
Continuous
 62
     7
100
AcDbCircle
 10
19.62074089603164
 20
86.78827574781143
 30
0.0
 40
0.06
100
AcDbArc
 50
90.00000000005782
 51
180.0000000000586
  0
LINE
  5
7AB
330
1ED
100
AcDbEntity
  8
BORDER
  6
Continuous
 62
     7
100
AcDbLine
 10
20.97681880007832
 20
86.20468559826591
 30
0.0
 11
20.97681880007866
 21
85.86968559826642
 31
0.0
  0
ARC
  5
7AC
330
1ED
100
AcDbEntity
  8
BORDER
  6
Continuous
 62
     7
100
AcDbCircle
 10
20.67533664793296
 20
86.20468559826564
 30
0.0
 40
0.4712806140621161
100
AcDbArc
 50
314.6975823545198
 51
0.0000000000602524
  0
LINE
  5
7AD
330
1ED
100
AcDbEntity
  8
BORDER
  6
Continuous
 62
     7
100
AcDbLine
 10
20.18574089603164
 20
86.788275747812
 30
0.0
 11
20.18574089603283
 21
85.61439984301669
 31
0.0
  0
LINE
  5
7AE
330
1ED
100
AcDbEntity
  8
BORDER
  6
Continuous
 62
     7
100
AcDbLine
 10
20.70274089603187
 20
86.57168559826514
 30
0.0
 11
20.70274089603262
 21
85.83453145799442
 31
0.0
  0
LINE
  5
7AF
330
1ED
100
AcDbEntity
  8
BORDER
  6
Continuous
 62
     7
100
AcDbLine
 10
21.00681880007825
 20
86.5396855982655
 30
0.0
 11
21.0068188000779
 21
85.86968559826514
 31
0.0
  0
LINE
  5
7B0
330
1ED
100
AcDbEntity
  8
BORDER
  6
Continuous
 62
     7
100
AcDbLine
 10
20.90332054597218
 20
86.07810852812997
 30
0.0
 11
20.97681880007844
 21
86.07810852813006
 31
0.0
  0
LINE
  5
7B1
330
1ED
100
AcDbEntity
  8
BORDER
  6
Continuous
 62
     7
100
AcDbLine
 10
20.18574089603262
 20
85.83453145799385
 30
0.0
 11
20.70274089603262
 21
85.83453145799442
 31
0.0
  0
ARC
  5
7B2
330
1ED
100
AcDbEntity
  8
BORDER
  6
Continuous
 62
     7
100
AcDbCircle
 10
20.12574089603283
 20
85.61439984301665
 30
0.0
 40
0.06
100
AcDbArc
 50
270.0000000000585
 51
0.000000000058624
  0
LINE
  5
7B3
330
1ED
100
AcDbEntity
  8
BORDER
  6
Continuous
 62
     7
100
AcDbLine
 10
20.71532054597224
 20
86.04054103445845
 30
0.0
 11
20.90332054597225
 21
86.04054103445864
 31
0.0
  0
LINE
  5
7B4
330
1ED
100
AcDbEntity
  8
BORDER
  6
Continuous
 62
     7
100
AcDbLine
 10
20.97681880007866
 20
85.86968559826642
 30
0.0
 11
21.00681880007893
 21
85.86968559826644
 31
0.0
  0
LINE
  5
7B5
330
1ED
100
AcDbEntity
  8
0
100
AcDbLine
 10
21.03681880007861
 20
85.90968559826601
 30
0.0
 11
20.97681880007861
 21
85.9096855982659
 31
0.0
  0
LINE
  5
7B6
330
1ED
100
AcDbEntity
  8
BORDER
  6
Continuous
 62
     7
100
AcDbLine
 10
20.98153847226235
 20
85.90968559828667
 30
0.0
 11
20.92153847226236
 21
85.90968559828667
 31
0.0
  0
LINE
  5
7B7
330
1ED
100
AcDbEntity
  8
BORDER
  6
Continuous
 62
     7
100
AcDbLine
 10
20.90332054597195
 20
86.32810852812998
 30
0.0
 11
20.97681880007818
 21
86.32810852813006
 31
0.0
  0
LINE
  5
7B8
330
1ED
100
AcDbEntity
  8
0
100
AcDbLine
 10
20.47681880007832
 20
86.20468559826544
 30
0.0
 11
20.97681880007832
 21
86.20468559826591
 31
0.0
  0
LINE
  5
7B9
330
1ED
100
AcDbEntity
  8
BORDER
  6
Continuous
 62
     7
100
AcDbLine
 10
20.18574089603186
 20
86.57168559826462
 30
0.0
 11
20.70274089603187
 21
86.57168559826514
 31
0.0
  0
ARC
  5
7BA
330
1ED
100
AcDbEntity
  8
BORDER
  6
Continuous
 62
     7
100
AcDbCircle
 10
20.12574089603163
 20
86.78827574781195
 30
0.0
 40
0.06
100
AcDbArc
 50
0.000000000058624
 51
90.00000000005863
  0
LINE
  5
7BB
330
1ED
100
AcDbEntity
  8
BORDER
  6
Continuous
 62
     7
100
AcDbLine
 10
20.71532054597189
 20
86.36554103445844
 30
0.0
 11
20.9033205459719
 21
86.36554103445865
 31
0.0
  0
LINE
  5
7BC
330
1ED
100
AcDbEntity
  8
BORDER
  6
Continuous
 62
     7
100
AcDbLine
 10
21.00681880007825
 20
86.5396855982655
 30
0.0
 11
20.97681880007797
 21
86.53968559826546
 31
0.0
  0
ARC
  5
7BD
330
1ED
100
AcDbEntity
  8
BORDER
  6
Continuous
 62
     7
100
AcDbCircle
 10
20.67533664793298
 20
86.20468559826564
 30
0.0
 40
0.4712806140620958
100
AcDbArc
 50
0.0000000000569955
 51
45.30241764559805
  0
LINE
  5
7BE
330
1ED
100
AcDbEntity
  8
BORDER
  6
Continuous
 62
     7
100
AcDbLine
 10
20.97681880007797
 20
86.53968559826546
 30
0.0
 11
20.97681880007832
 21
86.20468559826591
 31
0.0
  0
LINE
  5
7C0
330
1ED
100
AcDbEntity
  8
0
100
AcDbLine
 10
26.73707807719324
 20
92.12185852812988
 30
0.0
 11
27.5934037148713
 21
92.12185852812988
 31
0.0
  0
LINE
  5
7C1
330
1ED
100
AcDbEntity
  8
0
100
AcDbLine
 10
27.66524089603227
 20
92.39685852812993
 30
0.0
 11
26.66524089603228
 21
92.39685852812993
 31
0.0
  0
LINE
  5
7C2
330
1ED
100
AcDbEntity
  8
0
100
AcDbLine
 10
27.66524089603227
 20
92.12185852812988
 30
0.0
 11
27.66524089603227
 21
92.19685852812991
 31
0.0
  0
LINE
  5
7C3
330
1ED
100
AcDbEntity
  8
0
100
AcDbLine
 10
26.66524089603227
 20
92.12185852812988
 30
0.0
 11
26.66524089603227
 21
92.19685852812991
 31
0.0
  0
LINE
  5
7C4
330
1ED
100
AcDbEntity
  8
0
100
AcDbLine
 10
26.66524089603227
 20
92.19685852812991
 30
0.0
 11
27.66524089603227
 21
92.19685852812991
 31
0.0
  0
LINE
  5
7C5
330
1ED
100
AcDbEntity
  8
0
100
AcDbLine
 10
26.66524089603227
 20
92.12185852812988
 30
0.0
 11
27.66524089603227
 21
92.12185852812988
 31
0.0
  0
LINE
  5
7CA
330
1ED
100
AcDbEntity
  8
0
100
AcDbLine
 10
21.22774089603214
 20
85.39710852812991
 30
0.0
 11
21.22774089603213
 21
83.44710852812992
 31
0.0
  0
LINE
  5
7CB
330
1ED
100
AcDbEntity
  8
0
100
AcDbLine
 10
21.22774089603215
 20
86.92210852812989
 30
0.0
 11
21.22774089603211
 21
81.92210852812989
 31
0.0
  0
LINE
  5
7CC
330
1ED
100
AcDbEntity
  8
0
100
AcDbLine
 10
21.22774089603213
 20
83.93515225122992
 30
0.0
 11
21.41524089603213
 21
83.93515225122992
 31
0.0
  0
LINE
  5
7CD
330
1ED
100
AcDbEntity
  8
0
100
AcDbLine
 10
21.22774089603213
 20
84.90856480502992
 30
0.0
 11
21.41524089603213
 21
84.90856480502991
 31
0.0
  0
LINE
  5
7CE
330
1ED
100
AcDbEntity
  8
0
100
AcDbLine
 10
21.22774089603214
 20
86.6721085281299
 30
0.0
 11
21.41524089603214
 21
86.6721085281299
 31
0.0
  0
LINE
  5
7CF
330
1ED
100
AcDbEntity
  8
0
100
AcDbLine
 10
21.22774089603214
 20
85.60910852812991
 30
0.0
 11
21.41524089603213
 21
85.60910852812991
 31
0.0
  0
LINE
  5
7D0
330
1ED
100
AcDbEntity
  8
0
100
AcDbLine
 10
21.22774089603213
 20
84.10910852812992
 30
0.0
 11
21.41524089603213
 21
84.10910852812991
 31
0.0
  0
LINE
  5
7D1
330
1ED
100
AcDbEntity
  8
0
100
AcDbLine
 10
21.22774089603212
 20
83.23510852812992
 30
0.0
 11
21.41524089603212
 21
83.23510852812992
 31
0.0
  0
LINE
  5
7D2
330
1ED
100
AcDbEntity
  8
0
100
AcDbLine
 10
21.22774089603211
 20
82.17210852812989
 30
0.0
 11
21.41524089603212
 21
82.17210852812989
 31
0.0
  0
LINE
  5
7D3
330
1ED
100
AcDbEntity
  8
0
100
AcDbLine
 10
21.22774089603213
 20
84.7351085281299
 30
0.0
 11
21.41524089603213
 21
84.7351085281299
 31
0.0
  0
LINE
  5
7D4
330
1ED
100
AcDbEntity
  8
0
100
AcDbLine
 10
21.22774089603211
 20
81.92210852812989
 30
0.0
 11
21.41524089603211
 21
81.92210852812989
 31
0.0
  0
LINE
  5
7D5
330
1ED
100
AcDbEntity
  8
0
100
AcDbLine
 10
21.22774089603215
 20
86.92210852812989
 30
0.0
 11
21.41524089603214
 21
86.92210852812989
 31
0.0
  0
LINE
  5
7F2
330
1ED
100
AcDbEntity
  8
BORDER
  6
Continuous
 62
     7
100
AcDbLine
 10
34.70974089603291
 20
86.84827574781143
 30
0.0
 11
34.20474089603291
 21
86.84827574781195
 31
0.0
  0
LINE
  5
7F3
330
1ED
100
AcDbEntity
  8
BORDER
  6
Continuous
 62
     7
100
AcDbLine
 10
34.76974089603257
 20
86.52692482917665
 30
0.0
 11
34.14474089603257
 21
86.5269248291773
 31
0.0
  0
LINE
  5
7F4
330
1ED
100
AcDbEntity
  8
BORDER
  6
Continuous
 62
     7
100
AcDbLine
 10
34.76974089603191
 20
85.85181721343117
 30
0.0
 11
34.14474089603191
 21
85.85181721343181
 31
0.0
  0
LINE
  5
7F5
330
1ED
100
AcDbEntity
  8
BORDER
  6
Continuous
 62
     7
100
AcDbLine
 10
34.70974089603159
 20
85.55439984301612
 30
0.0
 11
34.2047408960316
 21
85.55439984301665
 31
0.0
  0
LINE
  5
7F6
330
1ED
100
AcDbEntity
  8
BORDER
  6
Continuous
 62
     7
100
AcDbLine
 10
34.76974089603288
 20
86.78827574781136
 30
0.0
 11
34.76974089603167
 21
85.61439984301605
 31
0.0
  0
ARC
  5
7F7
330
1ED
100
AcDbEntity
  8
BORDER
  6
Continuous
 62
     7
100
AcDbCircle
 10
34.70974089603166
 20
85.61439984301612
 30
0.0
 40
0.06
100
AcDbArc
 50
269.9999999999413
 51
359.9999999999413
  0
ARC
  5
7F8
330
1ED
100
AcDbEntity
  8
BORDER
  6
Continuous
 62
     7
100
AcDbCircle
 10
34.70974089603286
 20
86.78827574781143
 30
0.0
 40
0.06
100
AcDbArc
 50
359.9999999999413
 51
89.99999999994221
  0
LINE
  5
7F9
330
1ED
100
AcDbEntity
  8
BORDER
  6
Continuous
 62
     7
100
AcDbLine
 10
33.35366299198618
 20
86.20468559826591
 30
0.0
 11
33.35366299198585
 21
85.86968559826642
 31
0.0
  0
ARC
  5
7FA
330
1ED
100
AcDbEntity
  8
BORDER
  6
Continuous
 62
     7
100
AcDbCircle
 10
33.65514514413154
 20
86.20468559826564
 30
0.0
 40
0.4712806140621161
100
AcDbArc
 50
179.9999999999397
 51
225.3024176454801
  0
LINE
  5
7FB
330
1ED
100
AcDbEntity
  8
BORDER
  6
Continuous
 62
     7
100
AcDbLine
 10
34.14474089603286
 20
86.788275747812
 30
0.0
 11
34.14474089603167
 21
85.61439984301669
 31
0.0
  0
LINE
  5
7FC
330
1ED
100
AcDbEntity
  8
BORDER
  6
Continuous
 62
     7
100
AcDbLine
 10
33.62774089603263
 20
86.57168559826514
 30
0.0
 11
33.62774089603188
 21
85.83453145799442
 31
0.0
  0
LINE
  5
7FD
330
1ED
100
AcDbEntity
  8
BORDER
  6
Continuous
 62
     7
100
AcDbLine
 10
33.32366299198625
 20
86.5396855982655
 30
0.0
 11
33.3236629919866
 21
85.86968559826514
 31
0.0
  0
LINE
  5
7FE
330
1ED
100
AcDbEntity
  8
BORDER
  6
Continuous
 62
     7
100
AcDbLine
 10
33.42716124609232
 20
86.07810852812997
 30
0.0
 11
33.35366299198606
 21
86.07810852813006
 31
0.0
  0
LINE
  5
7FF
330
1ED
100
AcDbEntity
  8
BORDER
  6
Continuous
 62
     7
100
AcDbLine
 10
34.14474089603189
 20
85.83453145799385
 30
0.0
 11
33.62774089603188
 21
85.83453145799442
 31
0.0
  0
ARC
  5
800
330
1ED
100
AcDbEntity
  8
BORDER
  6
Continuous
 62
     7
100
AcDbCircle
 10
34.20474089603168
 20
85.61439984301665
 30
0.0
 40
0.06
100
AcDbArc
 50
179.9999999999413
 51
269.9999999999413
  0
LINE
  5
801
330
1ED
100
AcDbEntity
  8
BORDER
  6
Continuous
 62
     7
100
AcDbLine
 10
33.61516124609225
 20
86.04054103445845
 30
0.0
 11
33.42716124609224
 21
86.04054103445864
 31
0.0
  0
LINE
  5
802
330
1ED
100
AcDbEntity
  8
BORDER
  6
Continuous
 62
     7
100
AcDbLine
 10
33.35366299198585
 20
85.86968559826642
 30
0.0
 11
33.32366299198557
 21
85.86968559826644
 31
0.0
  0
LINE
  5
803
330
1ED
100
AcDbEntity
  8
0
100
AcDbLine
 10
33.29366299198589
 20
85.90968559826601
 30
0.0
 11
33.35366299198589
 21
85.9096855982659
 31
0.0
  0
LINE
  5
804
330
1ED
100
AcDbEntity
  8
BORDER
  6
Continuous
 62
     7
100
AcDbLine
 10
33.34894331980214
 20
85.90968559828667
 30
0.0
 11
33.40894331980213
 21
85.90968559828667
 31
0.0
  0
LINE
  5
805
330
1ED
100
AcDbEntity
  8
BORDER
  6
Continuous
 62
     7
100
AcDbLine
 10
33.42716124609254
 20
86.32810852812998
 30
0.0
 11
33.35366299198633
 21
86.32810852813006
 31
0.0
  0
LINE
  5
807
330
1ED
100
AcDbEntity
  8
BORDER
  6
Continuous
 62
     7
100
AcDbLine
 10
34.14474089603263
 20
86.57168559826462
 30
0.0
 11
33.62774089603263
 21
86.57168559826514
 31
0.0
  0
ARC
  5
808
330
1ED
100
AcDbEntity
  8
BORDER
  6
Continuous
 62
     7
100
AcDbCircle
 10
34.20474089603287
 20
86.78827574781195
 30
0.0
 40
0.06
100
AcDbArc
 50
89.99999999994136
 51
179.9999999999413
  0
LINE
  5
809
330
1ED
100
AcDbEntity
  8
BORDER
  6
Continuous
 62
     7
100
AcDbLine
 10
33.61516124609261
 20
86.36554103445844
 30
0.0
 11
33.4271612460926
 21
86.36554103445865
 31
0.0
  0
LINE
  5
80A
330
1ED
100
AcDbEntity
  8
BORDER
  6
Continuous
 62
     7
100
AcDbLine
 10
33.32366299198625
 20
86.5396855982655
 30
0.0
 11
33.35366299198653
 21
86.53968559826546
 31
0.0
  0
ARC
  5
80B
330
1ED
100
AcDbEntity
  8
BORDER
  6
Continuous
 62
     7
100
AcDbCircle
 10
33.65514514413152
 20
86.20468559826564
 30
0.0
 40
0.4712806140620958
100
AcDbArc
 50
134.6975823544019
 51
179.999999999943
  0
LINE
  5
80C
330
1ED
100
AcDbEntity
  8
BORDER
  6
Continuous
 62
     7
100
AcDbLine
 10
33.35366299198653
 20
86.53968559826546
 30
0.0
 11
33.35366299198618
 21
86.20468559826591
 31
0.0
  0
LINE
  5
80E
330
1ED
100
AcDbEntity
  8
0
100
AcDbLine
 10
33.67774089603226
 20
84.69710852812985
 30
0.0
 11
33.92774089603226
 21
84.69710852812985
 31
0.0
  0
LINE
  5
80F
330
1ED
100
AcDbEntity
  8
0
100
AcDbLine
 10
33.67774089603226
 20
84.14710852812987
 30
0.0
 11
33.92774089603226
 21
84.14710852812987
 31
0.0
  0
LINE
  5
810
330
1ED
100
AcDbEntity
  8
0
100
AcDbLine
 10
33.92774089603226
 20
84.14710852812987
 30
0.0
 11
33.92774089603226
 21
84.69710852812985
 31
0.0
  0
LINE
  5
811
330
1ED
100
AcDbEntity
  8
0
100
AcDbLine
 10
33.62774089603226
 20
84.86210852812986
 30
0.0
 11
33.67774089603226
 21
84.86210852812986
 31
0.0
  0
LINE
  5
812
330
1ED
100
AcDbEntity
  8
0
100
AcDbLine
 10
33.62774089603226
 20
83.98210852812987
 30
0.0
 11
33.67774089603226
 21
83.98210852812987
 31
0.0
  0
LINE
  5
813
330
1ED
100
AcDbEntity
  8
0
100
AcDbLine
 10
33.67774089603226
 20
83.98210852812987
 30
0.0
 11
33.67774089603226
 21
84.86210852812986
 31
0.0
  0
LINE
  5
814
330
1ED
100
AcDbEntity
  8
0
100
AcDbLine
 10
20.65274089603222
 20
83.98210852812987
 30
0.0
 11
20.65274089603222
 21
84.86210852812986
 31
0.0
  0
LINE
  5
815
330
1ED
100
AcDbEntity
  8
0
100
AcDbLine
 10
20.70274089603222
 20
83.98210852812987
 30
0.0
 11
20.65274089603222
 21
83.98210852812987
 31
0.0
  0
LINE
  5
816
330
1ED
100
AcDbEntity
  8
0
100
AcDbLine
 10
20.70274089603222
 20
84.86210852812986
 30
0.0
 11
20.65274089603222
 21
84.86210852812986
 31
0.0
  0
LINE
  5
817
330
1ED
100
AcDbEntity
  8
0
100
AcDbLine
 10
20.40274089603222
 20
84.14710852812987
 30
0.0
 11
20.40274089603222
 21
84.69710852812985
 31
0.0
  0
LINE
  5
818
330
1ED
100
AcDbEntity
  8
0
100
AcDbLine
 10
20.65274089603222
 20
84.14710852812987
 30
0.0
 11
20.40274089603222
 21
84.14710852812987
 31
0.0
  0
LINE
  5
819
330
1ED
100
AcDbEntity
  8
0
100
AcDbLine
 10
20.65274089603222
 20
84.69710852812985
 30
0.0
 11
20.40274089603222
 21
84.69710852812985
 31
0.0
  0
LINE
  5
826
330
1ED
100
AcDbEntity
  8
BORDER
  6
Continuous
 62
     7
100
AcDbLine
 10
23.3802408960327
 20
90.17210852812956
 30
0.0
 11
23.71524089603225
 21
90.17210852812992
 31
0.0
  0
ARC
  5
827
330
1ED
100
AcDbEntity
  8
BORDER
  6
Continuous
 62
     7
100
AcDbCircle
 10
23.71524089603251
 20
89.87062637598455
 30
0.0
 40
0.4712806140620958
100
AcDbArc
 50
90.00000000005702
 51
135.302417645598
  0
LINE
  5
828
330
1ED
100
AcDbEntity
  8
BORDER
  6
Continuous
 62
     7
100
AcDbLine
 10
23.38024089603267
 20
90.20210852812985
 30
0.0
 11
23.3802408960327
 21
90.17210852812956
 31
0.0
  0
LINE
  5
829
330
1ED
100
AcDbEntity
  8
BORDER
  6
Continuous
 62
     7
100
AcDbLine
 10
24.05024089603176
 20
90.17210852813022
 30
0.0
 11
24.05024089603172
 21
90.2021085281305
 31
0.0
  0
LINE
  5
82A
330
1ED
100
AcDbEntity
  8
BORDER
  6
Continuous
 62
     7
100
AcDbLine
 10
23.38024089603267
 20
90.20210852812985
 30
0.0
 11
24.050240896033
 21
90.20210852812949
 31
0.0
  0
ARC
  5
82B
330
1ED
100
AcDbEntity
  8
BORDER
  6
Continuous
 62
     7
100
AcDbCircle
 10
23.71524089603251
 20
89.87062637598453
 30
0.0
 40
0.4712806140621161
100
AcDbArc
 50
44.69758235451982
 51
90.00000000006027
  0
LINE
  5
82C
330
1ED
100
AcDbEntity
  8
BORDER
  6
Continuous
 62
     7
100
AcDbLine
 10
23.71524089603225
 20
90.17210852812992
 30
0.0
 11
24.05024089603176
 21
90.17210852813022
 31
0.0
  0
LINE
  5
82D
330
1ED
100
AcDbEntity
  8
BORDER
  6
Continuous
 62
     7
100
AcDbLine
 10
27.16524089603225
 20
90.17210852812992
 30
0.0
 11
27.50024089603177
 21
90.17210852813022
 31
0.0
  0
ARC
  5
82E
330
1ED
100
AcDbEntity
  8
BORDER
  6
Continuous
 62
     7
100
AcDbCircle
 10
27.16524089603251
 20
89.87062637598453
 30
0.0
 40
0.4712806140621161
100
AcDbArc
 50
44.69758235451982
 51
90.00000000006027
  0
LINE
  5
82F
330
1ED
100
AcDbEntity
  8
BORDER
  6
Continuous
 62
     7
100
AcDbLine
 10
26.83024089603267
 20
90.20210852812985
 30
0.0
 11
27.50024089603301
 21
90.20210852812949
 31
0.0
  0
LINE
  5
830
330
1ED
100
AcDbEntity
  8
BORDER
  6
Continuous
 62
     7
100
AcDbLine
 10
27.50024089603177
 20
90.17210852813022
 30
0.0
 11
27.50024089603172
 21
90.2021085281305
 31
0.0
  0
LINE
  5
831
330
1ED
100
AcDbEntity
  8
BORDER
  6
Continuous
 62
     7
100
AcDbLine
 10
26.83024089603267
 20
90.20210852812985
 30
0.0
 11
26.8302408960327
 21
90.17210852812956
 31
0.0
  0
ARC
  5
832
330
1ED
100
AcDbEntity
  8
BORDER
  6
Continuous
 62
     7
100
AcDbCircle
 10
27.16524089603251
 20
89.87062637598455
 30
0.0
 40
0.4712806140620958
100
AcDbArc
 50
90.00000000005702
 51
135.302417645598
  0
LINE
  5
833
330
1ED
100
AcDbEntity
  8
BORDER
  6
Continuous
 62
     7
100
AcDbLine
 10
26.8302408960327
 20
90.17210852812956
 30
0.0
 11
27.16524089603225
 21
90.17210852812992
 31
0.0
  0
LINE
  5
834
330
1ED
100
AcDbEntity
  8
BORDER
  6
Continuous
 62
     7
100
AcDbLine
 10
30.28024089603269
 20
90.17210852812956
 30
0.0
 11
30.61524089603224
 21
90.17210852812992
 31
0.0
  0
ARC
  5
835
330
1ED
100
AcDbEntity
  8
BORDER
  6
Continuous
 62
     7
100
AcDbCircle
 10
30.6152408960325
 20
89.87062637598455
 30
0.0
 40
0.4712806140620958
100
AcDbArc
 50
90.00000000005702
 51
135.302417645598
  0
LINE
  5
836
330
1ED
100
AcDbEntity
  8
BORDER
  6
Continuous
 62
     7
100
AcDbLine
 10
30.28024089603266
 20
90.20210852812985
 30
0.0
 11
30.28024089603269
 21
90.17210852812956
 31
0.0
  0
LINE
  5
837
330
1ED
100
AcDbEntity
  8
BORDER
  6
Continuous
 62
     7
100
AcDbLine
 10
30.95024089603175
 20
90.17210852813022
 30
0.0
 11
30.95024089603171
 21
90.2021085281305
 31
0.0
  0
LINE
  5
838
330
1ED
100
AcDbEntity
  8
BORDER
  6
Continuous
 62
     7
100
AcDbLine
 10
30.28024089603266
 20
90.20210852812985
 30
0.0
 11
30.95024089603299
 21
90.20210852812949
 31
0.0
  0
ARC
  5
839
330
1ED
100
AcDbEntity
  8
BORDER
  6
Continuous
 62
     7
100
AcDbCircle
 10
30.6152408960325
 20
89.87062637598453
 30
0.0
 40
0.4712806140621161
100
AcDbArc
 50
44.69758235451982
 51
90.00000000006027
  0
LINE
  5
83A
330
1ED
100
AcDbEntity
  8
BORDER
  6
Continuous
 62
     7
100
AcDbLine
 10
30.61524089603224
 20
90.17210852812992
 30
0.0
 11
30.95024089603175
 21
90.17210852813022
 31
0.0
  0
LINE
  5
83B
330
1ED
100
AcDbEntity
  8
BORDER
  6
Continuous
 62
     7
100
AcDbLine
 10
30.61524089603224
 20
78.67210852812981
 30
0.0
 11
30.95024089603175
 21
78.67210852812949
 31
0.0
  0
ARC
  5
83C
330
1ED
100
AcDbEntity
  8
BORDER
  6
Continuous
 62
     7
100
AcDbCircle
 10
30.6152408960325
 20
78.97359068027519
 30
0.0
 40
0.4712806140621161
100
AcDbArc
 50
269.9999999999397
 51
315.3024176454802
  0
LINE
  5
83D
330
1ED
100
AcDbEntity
  8
BORDER
  6
Continuous
 62
     7
100
AcDbLine
 10
30.28024089603266
 20
78.64210852812989
 30
0.0
 11
30.95024089603299
 21
78.64210852813025
 31
0.0
  0
LINE
  5
83E
330
1ED
100
AcDbEntity
  8
BORDER
  6
Continuous
 62
     7
100
AcDbLine
 10
30.95024089603175
 20
78.67210852812949
 30
0.0
 11
30.95024089603171
 21
78.6421085281292
 31
0.0
  0
LINE
  5
83F
330
1ED
100
AcDbEntity
  8
BORDER
  6
Continuous
 62
     7
100
AcDbLine
 10
30.28024089603266
 20
78.64210852812989
 30
0.0
 11
30.28024089603269
 21
78.67210852813018
 31
0.0
  0
ARC
  5
840
330
1ED
100
AcDbEntity
  8
BORDER
  6
Continuous
 62
     7
100
AcDbCircle
 10
30.6152408960325
 20
78.97359068027515
 30
0.0
 40
0.4712806140620958
100
AcDbArc
 50
224.6975823544019
 51
269.9999999999429
  0
LINE
  5
841
330
1ED
100
AcDbEntity
  8
BORDER
  6
Continuous
 62
     7
100
AcDbLine
 10
30.28024089603269
 20
78.67210852813018
 30
0.0
 11
30.61524089603224
 21
78.67210852812981
 31
0.0
  0
LINE
  5
842
330
1ED
100
AcDbEntity
  8
BORDER
  6
Continuous
 62
     7
100
AcDbLine
 10
26.8302408960327
 20
78.67210852813018
 30
0.0
 11
27.16524089603225
 21
78.67210852812981
 31
0.0
  0
ARC
  5
843
330
1ED
100
AcDbEntity
  8
BORDER
  6
Continuous
 62
     7
100
AcDbCircle
 10
27.16524089603251
 20
78.97359068027515
 30
0.0
 40
0.4712806140620958
100
AcDbArc
 50
224.6975823544019
 51
269.9999999999429
  0
LINE
  5
844
330
1ED
100
AcDbEntity
  8
BORDER
  6
Continuous
 62
     7
100
AcDbLine
 10
26.83024089603267
 20
78.64210852812989
 30
0.0
 11
26.8302408960327
 21
78.67210852813018
 31
0.0
  0
LINE
  5
845
330
1ED
100
AcDbEntity
  8
BORDER
  6
Continuous
 62
     7
100
AcDbLine
 10
27.50024089603177
 20
78.67210852812949
 30
0.0
 11
27.50024089603172
 21
78.6421085281292
 31
0.0
  0
LINE
  5
846
330
1ED
100
AcDbEntity
  8
BORDER
  6
Continuous
 62
     7
100
AcDbLine
 10
26.83024089603267
 20
78.64210852812989
 30
0.0
 11
27.50024089603301
 21
78.64210852813025
 31
0.0
  0
ARC
  5
847
330
1ED
100
AcDbEntity
  8
BORDER
  6
Continuous
 62
     7
100
AcDbCircle
 10
27.16524089603251
 20
78.97359068027519
 30
0.0
 40
0.4712806140621161
100
AcDbArc
 50
269.9999999999397
 51
315.3024176454802
  0
LINE
  5
848
330
1ED
100
AcDbEntity
  8
BORDER
  6
Continuous
 62
     7
100
AcDbLine
 10
27.16524089603225
 20
78.67210852812981
 30
0.0
 11
27.50024089603177
 21
78.67210852812949
 31
0.0
  0
LINE
  5
849
330
1ED
100
AcDbEntity
  8
BORDER
  6
Continuous
 62
     7
100
AcDbLine
 10
23.71524089603225
 20
78.67210852812981
 30
0.0
 11
24.05024089603176
 21
78.67210852812949
 31
0.0
  0
ARC
  5
84A
330
1ED
100
AcDbEntity
  8
BORDER
  6
Continuous
 62
     7
100
AcDbCircle
 10
23.71524089603251
 20
78.97359068027519
 30
0.0
 40
0.4712806140621161
100
AcDbArc
 50
269.9999999999397
 51
315.3024176454802
  0
LINE
  5
84B
330
1ED
100
AcDbEntity
  8
BORDER
  6
Continuous
 62
     7
100
AcDbLine
 10
23.38024089603267
 20
78.64210852812989
 30
0.0
 11
24.050240896033
 21
78.64210852813025
 31
0.0
  0
LINE
  5
84C
330
1ED
100
AcDbEntity
  8
BORDER
  6
Continuous
 62
     7
100
AcDbLine
 10
24.05024089603176
 20
78.67210852812949
 30
0.0
 11
24.05024089603172
 21
78.6421085281292
 31
0.0
  0
LINE
  5
84D
330
1ED
100
AcDbEntity
  8
BORDER
  6
Continuous
 62
     7
100
AcDbLine
 10
23.38024089603267
 20
78.64210852812989
 30
0.0
 11
23.3802408960327
 21
78.67210852813018
 31
0.0
  0
ARC
  5
84E
330
1ED
100
AcDbEntity
  8
BORDER
  6
Continuous
 62
     7
100
AcDbCircle
 10
23.71524089603251
 20
78.97359068027515
 30
0.0
 40
0.4712806140620958
100
AcDbArc
 50
224.6975823544019
 51
269.9999999999429
  0
LINE
  5
84F
330
1ED
100
AcDbEntity
  8
BORDER
  6
Continuous
 62
     7
100
AcDbLine
 10
23.3802408960327
 20
78.67210852813018
 30
0.0
 11
23.71524089603225
 21
78.67210852812981
 31
0.0
  0
DIMENSION
  5
851
330
1ED
100
AcDbEntity
  8
0
100
AcDbDimension
  2
*D2
 10
10.07018510645307
 20
94.17182593081347
 30
0.0
 11
7.067935106503075
 21
94.38682593081349
 31
0.0
 70
    32
 71
     5
 42
6.004499999899999
  3
STANDARD
100
AcDbAlignedDimension
 13
4.065685106553075
 23
89.42210852812989
 33
0.0
 14
10.07018510645307
 24
86.6721085281299
 34
0.0
100
AcDbRotatedDimension
1001
ACAD
1000
DSTYLE
1002
{
1070
    41
1040
0.25
1070
    42
1040
0.003937
1070
    43
1040
0.275591
1070
    44
1040
0.070866
1070
    73
1070
     0
1070
    74
1070
     0
1070
    77
1070
     1
1070
   140
1040
0.25
1070
   271
1070
     2
1070
   272
1070
     2
1070
   279
1070
     0
1002
}
  0
DIMENSION
  5
85E
330
1ED
100
AcDbEntity
  8
0
100
AcDbDimension
  2
*D3
 10
33.62774089603226
 20
94.2934387915815
 30
0.0
 11
27.16524089603225
 21
94.50843879158147
 31
0.0
 70
    32
 71
     5
 42
12.92500000000001
  3
STANDARD
100
AcDbAlignedDimension
 13
20.70274089603224
 23
91.39685852812993
 33
0.0
 14
33.62774089603226
 24
91.39685852812988
 34
0.0
100
AcDbRotatedDimension
1001
ACAD
1000
DSTYLE
1002
{
1070
    41
1040
0.25
1070
    42
1040
0.003937
1070
    43
1040
0.275591
1070
    44
1040
0.070866
1070
    73
1070
     0
1070
    74
1070
     0
1070
    77
1070
     1
1070
   140
1040
0.25
1070
   271
1070
     2
1070
   272
1070
     2
1070
   279
1070
     0
1002
}
  0
DIMENSION
  5
86B
330
1ED
100
AcDbEntity
  8
0
100
AcDbDimension
  2
*D4
 10
57.15636279864812
 20
94.86766144898494
 30
0.0
 11
51.63136279864811
 21
95.08266144898495
 31
0.0
 70
    32
 71
     5
 42
11.05000000000001
  3
STANDARD
100
AcDbAlignedDimension
 13
46.10636279864809
 23
84.42210852812989
 33
0.0
 14
57.15636279864812
 24
85.1843585281299
 34
0.0
100
AcDbRotatedDimension
1001
ACAD
1000
DSTYLE
1002
{
1070
    41
1040
0.25
1070
    42
1040
0.003937
1070
    43
1040
0.275591
1070
    44
1040
0.070866
1070
    73
1070
     0
1070
    74
1070
     0
1070
    77
1070
     1
1070
   140
1040
0.25
1070
   271
1070
     2
1070
   272
1070
     2
1070
   279
1070
     0
1002
}
  0
DIMENSION
  5
878
330
1ED
100
AcDbEntity
  8
0
100
AcDbDimension
  2
*D5
 10
1.716161032615928
 20
79.4221085281299
 30
0.0
 11
1.501161032615915
 21
84.42210852812989
 31
0.0
 70
    32
 71
     5
 42
10.0
  3
STANDARD
100
AcDbAlignedDimension
 13
4.065685106553075
 23
89.42210852812989
 33
0.0
 14
4.065685106553075
 24
79.4221085281299
 34
0.0
 50
90.0
100
AcDbRotatedDimension
1001
ACAD
1000
DSTYLE
1002
{
1070
    41
1040
0.25
1070
    42
1040
0.003937
1070
    43
1040
0.275591
1070
    44
1040
0.070866
1070
    73
1070
     0
1070
    74
1070
     0
1070
    77
1070
     1
1070
   140
1040
0.25
1070
   271
1070
     2
1070
   272
1070
     2
1070
   279
1070
     0
1002
}
  0
DIMENSION
  5
885
330
1ED
100
AcDbEntity
  8
0
100
AcDbDimension
  2
*D6
 10
0.0712731370183797
 20
78.6721085281299
 30
0.0
 11
-0.1437268629816327
 21
84.42210852812989
 31
0.0
 70
    32
 71
     5
 42
11.5
  3
STANDARD
100
AcDbAlignedDimension
 13
4.328185106553092
 23
90.17210852812992
 33
0.0
 14
4.328185106553092
 24
78.6721085281299
 34
0.0
 50
90.0
100
AcDbRotatedDimension
1001
ACAD
1000
DSTYLE
1002
{
1070
    41
1040
0.25
1070
    42
1040
0.003937
1070
    43
1040
0.275591
1070
    44
1040
0.070866
1070
    73
1070
     0
1070
    74
1070
     0
1070
    77
1070
     1
1070
   140
1040
0.25
1070
   271
1070
     2
1070
   272
1070
     2
1070
   279
1070
     0
1002
}
  0
DIMENSION
  5
892
330
1ED
100
AcDbEntity
  8
0
100
AcDbDimension
  2
*D7
 10
11.63712061191577
 20
81.92210852812989
 30
0.0
 11
11.42212061191576
 21
84.42210852812989
 31
0.0
 70
    32
 71
     5
 42
5.0
  3
STANDARD
100
AcDbAlignedDimension
 13
9.390185106453074
 23
86.92210852812989
 33
0.0
 14
9.390185106028523
 24
81.92210852812989
 34
0.0
 50
90.0
100
AcDbRotatedDimension
1001
ACAD
1000
DSTYLE
1002
{
1070
    41
1040
0.25
1070
    42
1040
0.003937
1070
    43
1040
0.275591
1070
    44
1040
0.070866
1070
    73
1070
     0
1070
    74
1070
     0
1070
    77
1070
     1
1070
   140
1040
0.25
1070
   271
1070
     2
1070
   272
1070
     2
1070
   279
1070
     0
1002
}
  0
DIMENSION
  5
89F
330
1ED
100
AcDbEntity
  8
0
100
AcDbDimension
  2
*D8
 10
36.48114314313192
 20
78.67210852812984
 30
0.0
 11
36.26614314313191
 21
84.42210852812989
 31
0.0
 70
    32
 71
     5
 42
11.50000000000003
  3
STANDARD
100
AcDbAlignedDimension
 13
31.91524089603225
 23
90.17210852812992
 33
0.0
 14
31.91524089603224
 24
78.67210852812987
 34
0.0
 50
90.0
100
AcDbRotatedDimension
1001
ACAD
1000
DSTYLE
1002
{
1070
    41
1040
0.25
1070
    42
1040
0.003937
1070
    43
1040
0.275591
1070
    44
1040
0.070866
1070
    73
1070
     0
1070
    74
1070
     0
1070
    77
1070
     1
1070
   140
1040
0.25
1070
   271
1070
     2
1070
   272
1070
     2
1070
   279
1070
     0
1002
}
  0
DIMENSION
  5
8AC
330
1ED
100
AcDbEntity
  8
0
100
AcDbDimension
  2
*D9
 10
17.655766415311
 20
78.6721085281299
 30
0.0
 11
17.44076641531099
 21
81.54710852812987
 31
0.0
 70
    32
 71
     5
 42
5.749999999999957
  3
STANDARD
100
AcDbAlignedDimension
 13
20.40274089603222
 23
84.42210852812987
 33
0.0
 14
22.41524089603223
 24
78.6721085281299
 34
0.0
 50
90.0
100
AcDbRotatedDimension
1001
ACAD
1000
DSTYLE
1002
{
1070
    41
1040
0.25
1070
    42
1040
0.003937
1070
    43
1040
0.275591
1070
    44
1040
0.070866
1070
    73
1070
     0
1070
    74
1070
     0
1070
    77
1070
     1
1070
   140
1040
0.25
1070
   271
1070
     2
1070
   272
1070
     2
1070
   279
1070
     0
1002
}
  0
DIMENSION
  5
8B9
330
1ED
100
AcDbEntity
  8
0
100
AcDbDimension
  2
*D10
 10
17.655766415311
 20
92.39685852812993
 30
0.0
 11
17.44076641531099
 21
88.4094835281299
 31
0.0
 70
    32
 71
     5
 42
7.974750000000042
  3
STANDARD
100
AcDbAlignedDimension
 13
20.39880389603222
 23
84.42210852812987
 33
0.0
 14
21.70274089603224
 24
92.39685852812993
 34
0.0
 50
90.0
100
AcDbRotatedDimension
1001
ACAD
1000
DSTYLE
1002
{
1070
    41
1040
0.25
1070
    42
1040
0.003937
1070
    43
1040
0.275591
1070
    44
1040
0.070866
1070
    73
1070
     0
1070
    74
1070
     0
1070
    77
1070
     1
1070
   140
1040
0.25
1070
   271
1070
     2
1070
   272
1070
     2
1070
   279
1070
     0
1002
}
  0
DIMENSION
  5
8D8
330
1ED
100
AcDbEntity
  8
0
100
AcDbDimension
  2
*D11
 10
46.10636279864809
 20
92.78770757502584
 30
0.0
 11
49.10861279839811
 21
93.00270757502586
 31
0.0
 70
    32
 71
     5
 42
6.004499999500019
  3
STANDARD
100
AcDbAlignedDimension
 13
52.11086279814812
 23
86.6721085281299
 33
0.0
 14
46.10636279864809
 24
89.42210852812989
 34
0.0
100
AcDbRotatedDimension
1001
ACAD
1000
DSTYLE
1002
{
1070
    41
1040
0.25
1070
    42
1040
0.003937
1070
    43
1040
0.275591
1070
    44
1040
0.070866
1070
    73
1070
     0
1070
    74
1070
     0
1070
    77
1070
     1
1070
   140
1040
0.25
1070
   271
1070
     2
1070
   272
1070
     2
1070
   279
1070
     0
1002
}
  0
DIMENSION
  5
93F
330
1ED
100
AcDbEntity
  8
0
100
AcDbDimension
  2
*D12
 10
34.76974089603228
 20
96.07253234875145
 30
0.0
 11
27.16524089603225
 21
96.28753234875143
 31
0.0
 70
    32
 71
     5
 42
15.20900000000005
  3
STANDARD
100
AcDbAlignedDimension
 13
19.56074089603221
 23
86.20133779541372
 33
0.0
 14
34.76974089603228
 24
86.20133779541372
 34
0.0
100
AcDbRotatedDimension
1001
ACAD
1000
DSTYLE
1002
{
1070
    41
1040
0.25
1070
    42
1040
0.003937
1070
    43
1040
0.275591
1070
    44
1040
0.070866
1070
    73
1070
     0
1070
    74
1070
     0
1070
    77
1070
     1
1070
   140
1040
0.25
1070
   271
1070
     2
1070
   272
1070
     2
1070
   279
1070
     0
1002
}
  0
DIMENSION
  5
94F
330
1ED
100
AcDbEntity
  8
0
100
AcDbDimension
  2
*D13
 10
-1.832738491540909
 20
78.6721085281299
 30
0.0
 11
-2.047738491540921
 21
85.5344835281299
 31
0.0
 70
    32
 71
     5
 42
13.72475
  3
STANDARD
100
AcDbAlignedDimension
 13
7.140685106553092
 23
92.39685852812993
 33
0.0
 14
5.078185106553092
 24
78.6721085281299
 34
0.0
 50
90.0
100
AcDbRotatedDimension
1001
ACAD
1000
DSTYLE
1002
{
1070
    41
1040
0.25
1070
    42
1040
0.003937
1070
    43
1040
0.275591
1070
    44
1040
0.070866
1070
    73
1070
     0
1070
    74
1070
     0
1070
    77
1070
     1
1070
   140
1040
0.25
1070
   271
1070
     2
1070
   272
1070
     2
1070
   279
1070
     0
1002
}
  0
LINE
  5
95C
330
1ED
100
AcDbEntity
  8
BORDER
  6
Continuous
 62
     7
100
AcDbLine
 10
5.078185106553092
 20
90.17210852812992
 30
0.0
 11
5.413185106552603
 21
90.17210852813022
 31
0.0
  0
ARC
  5
95D
330
1ED
100
AcDbEntity
  8
BORDER
  6
Continuous
 62
     7
100
AcDbCircle
 10
5.078185106553355
 20
89.87062637598453
 30
0.0
 40
0.4712806140621161
100
AcDbArc
 50
44.69758235451982
 51
90.00000000006027
  0
LINE
  5
95E
330
1ED
100
AcDbEntity
  8
BORDER
  6
Continuous
 62
     7
100
AcDbLine
 10
4.743185106553511
 20
90.20210852812985
 30
0.0
 11
5.413185106553839
 21
90.20210852812949
 31
0.0
  0
LINE
  5
95F
330
1ED
100
AcDbEntity
  8
BORDER
  6
Continuous
 62
     7
100
AcDbLine
 10
5.413185106552603
 20
90.17210852813022
 30
0.0
 11
5.413185106552559
 21
90.2021085281305
 31
0.0
  0
LINE
  5
960
330
1ED
100
AcDbEntity
  8
BORDER
  6
Continuous
 62
     7
100
AcDbLine
 10
4.743185106553511
 20
90.20210852812985
 30
0.0
 11
4.743185106553538
 21
90.17210852812956
 31
0.0
  0
ARC
  5
961
330
1ED
100
AcDbEntity
  8
BORDER
  6
Continuous
 62
     7
100
AcDbCircle
 10
5.078185106553355
 20
89.87062637598455
 30
0.0
 40
0.4712806140620958
100
AcDbArc
 50
90.00000000005702
 51
135.302417645598
  0
LINE
  5
962
330
1ED
100
AcDbEntity
  8
BORDER
  6
Continuous
 62
     7
100
AcDbLine
 10
4.743185106553538
 20
90.17210852812956
 30
0.0
 11
5.078185106553092
 21
90.17210852812992
 31
0.0
  0
LINE
  5
963
330
1ED
100
AcDbEntity
  8
BORDER
  6
Continuous
 62
     7
100
AcDbLine
 10
46.78386279864855
 20
90.17210852812956
 30
0.0
 11
47.11886279864811
 21
90.17210852812992
 31
0.0
  0
ARC
  5
964
330
1ED
100
AcDbEntity
  8
BORDER
  6
Continuous
 62
     7
100
AcDbCircle
 10
47.11886279864836
 20
89.87062637598455
 30
0.0
 40
0.4712806140620958
100
AcDbArc
 50
90.00000000005702
 51
135.302417645598
  0
LINE
  5
965
330
1ED
100
AcDbEntity
  8
BORDER
  6
Continuous
 62
     7
100
AcDbLine
 10
46.78386279864851
 20
90.20210852812985
 30
0.0
 11
46.78386279864855
 21
90.17210852812956
 31
0.0
  0
LINE
  5
966
330
1ED
100
AcDbEntity
  8
BORDER
  6
Continuous
 62
     7
100
AcDbLine
 10
47.45386279864761
 20
90.17210852813022
 30
0.0
 11
47.45386279864756
 21
90.2021085281305
 31
0.0
  0
LINE
  5
967
330
1ED
100
AcDbEntity
  8
BORDER
  6
Continuous
 62
     7
100
AcDbLine
 10
46.78386279864851
 20
90.20210852812985
 30
0.0
 11
47.45386279864885
 21
90.20210852812949
 31
0.0
  0
ARC
  5
968
330
1ED
100
AcDbEntity
  8
BORDER
  6
Continuous
 62
     7
100
AcDbCircle
 10
47.11886279864836
 20
89.87062637598453
 30
0.0
 40
0.4712806140621161
100
AcDbArc
 50
44.69758235451982
 51
90.00000000006027
  0
LINE
  5
969
330
1ED
100
AcDbEntity
  8
BORDER
  6
Continuous
 62
     7
100
AcDbLine
 10
47.11886279864811
 20
90.17210852812992
 30
0.0
 11
47.45386279864761
 21
90.17210852813022
 31
0.0
  0
LINE
  5
96A
330
1ED
100
AcDbEntity
  8
BORDER
  6
Continuous
 62
     7
100
AcDbLine
 10
4.743185106553538
 20
78.67210852813027
 30
0.0
 11
5.078185106553092
 21
78.6721085281299
 31
0.0
  0
ARC
  5
96B
330
1ED
100
AcDbEntity
  8
BORDER
  6
Continuous
 62
     7
100
AcDbCircle
 10
5.078185106553355
 20
78.97359068027525
 30
0.0
 40
0.4712806140620958
100
AcDbArc
 50
224.6975823544019
 51
269.9999999999429
  0
LINE
  5
96C
330
1ED
100
AcDbEntity
  8
BORDER
  6
Continuous
 62
     7
100
AcDbLine
 10
4.743185106553511
 20
78.64210852812998
 30
0.0
 11
4.743185106553538
 21
78.67210852813027
 31
0.0
  0
LINE
  5
96D
330
1ED
100
AcDbEntity
  8
BORDER
  6
Continuous
 62
     7
100
AcDbLine
 10
5.413185106552603
 20
78.67210852812956
 30
0.0
 11
5.413185106552559
 21
78.6421085281293
 31
0.0
  0
LINE
  5
96E
330
1ED
100
AcDbEntity
  8
BORDER
  6
Continuous
 62
     7
100
AcDbLine
 10
4.743185106553511
 20
78.64210852812998
 30
0.0
 11
5.413185106553839
 21
78.64210852813034
 31
0.0
  0
ARC
  5
96F
330
1ED
100
AcDbEntity
  8
BORDER
  6
Continuous
 62
     7
100
AcDbCircle
 10
5.078185106553355
 20
78.97359068027528
 30
0.0
 40
0.4712806140621161
100
AcDbArc
 50
269.9999999999397
 51
315.3024176454802
  0
LINE
  5
970
330
1ED
100
AcDbEntity
  8
BORDER
  6
Continuous
 62
     7
100
AcDbLine
 10
5.078185106553092
 20
78.6721085281299
 30
0.0
 11
5.413185106552603
 21
78.67210852812956
 31
0.0
  0
LINE
  5
971
330
1ED
100
AcDbEntity
  8
BORDER
  6
Continuous
 62
     7
100
AcDbLine
 10
46.78386279864855
 20
78.67210852813027
 30
0.0
 11
47.11886279864811
 21
78.6721085281299
 31
0.0
  0
ARC
  5
972
330
1ED
100
AcDbEntity
  8
BORDER
  6
Continuous
 62
     7
100
AcDbCircle
 10
47.11886279864835
 20
78.97359068027525
 30
0.0
 40
0.4712806140620958
100
AcDbArc
 50
224.6975823544019
 51
269.9999999999429
  0
LINE
  5
973
330
1ED
100
AcDbEntity
  8
BORDER
  6
Continuous
 62
     7
100
AcDbLine
 10
46.78386279864851
 20
78.64210852812998
 30
0.0
 11
46.78386279864855
 21
78.67210852813027
 31
0.0
  0
LINE
  5
974
330
1ED
100
AcDbEntity
  8
BORDER
  6
Continuous
 62
     7
100
AcDbLine
 10
47.45386279864761
 20
78.67210852812956
 30
0.0
 11
47.45386279864756
 21
78.6421085281293
 31
0.0
  0
LINE
  5
975
330
1ED
100
AcDbEntity
  8
BORDER
  6
Continuous
 62
     7
100
AcDbLine
 10
46.78386279864851
 20
78.64210852812998
 30
0.0
 11
47.45386279864885
 21
78.64210852813034
 31
0.0
  0
ARC
  5
976
330
1ED
100
AcDbEntity
  8
BORDER
  6
Continuous
 62
     7
100
AcDbCircle
 10
47.11886279864835
 20
78.97359068027528
 30
0.0
 40
0.4712806140621161
100
AcDbArc
 50
269.9999999999397
 51
315.3024176454802
  0
LINE
  5
977
330
1ED
100
AcDbEntity
  8
BORDER
  6
Continuous
 62
     7
100
AcDbLine
 10
47.11886279864811
 20
78.6721085281299
 30
0.0
 11
47.45386279864761
 21
78.67210852812956
 31
0.0
  0
LINE
  5
97C
330
1ED
100
AcDbEntity
  8
0
100
AcDbLine
 10
7.640685106553084
 20
92.39685852812993
 30
0.0
 11
6.640685106553099
 21
92.39685852812993
 31
0.0
  0
LINE
  5
97E
330
1ED
100
AcDbEntity
  8
0
100
AcDbLine
 10
7.060808109564598
 20
93.05341910599734
 30
0.0
 11
6.97966590748134
 21
93.00375840449921
 31
0.0
  0
LINE
  5
97F
330
1ED
100
AcDbEntity
  8
0
100
AcDbLine
 10
7.131394606967794
 20
93.10053535118193
 30
0.0
 11
7.060808109564598
 21
93.05341910599734
 31
0.0
  0
LINE
  5
980
330
1ED
100
AcDbEntity
  8
0
100
AcDbLine
 10
7.191606034535105
 20
93.13979346832908
 30
0.0
 11
7.131394606967794
 21
93.10053535118193
 31
0.0
  0
LINE
  5
981
330
1ED
100
AcDbEntity
  8
0
100
AcDbLine
 10
7.24155840585974
 20
93.16696253167744
 30
0.0
 11
7.191606034535105
 21
93.13979346832908
 31
0.0
  0
LINE
  5
982
330
1ED
100
AcDbEntity
  8
0
100
AcDbLine
 10
7.281109249531332
 20
93.18214259931414
 30
0.0
 11
7.24155840585974
 21
93.16696253167744
 31
0.0
  0
LINE
  5
983
330
1ED
100
AcDbEntity
  8
0
100
AcDbLine
 10
7.310051472888367
 20
93.18651647528865
 30
0.0
 11
7.281109249531332
 21
93.18214259931414
 31
0.0
  0
LINE
  5
984
330
1ED
100
AcDbEntity
  8
0
100
AcDbLine
 10
7.328177983269476
 20
93.1812669636505
 30
0.0
 11
7.310051472888367
 21
93.18651647528865
 31
0.0
  0
LINE
  5
985
330
1ED
100
AcDbEntity
  8
0
100
AcDbLine
 10
7.335281688013202
 20
93.16757686844907
 30
0.0
 11
7.328177983269476
 21
93.1812669636505
 31
0.0
  0
LINE
  5
986
330
1ED
100
AcDbEntity
  8
0
100
AcDbLine
 10
7.331155494458222
 20
93.14662899373372
 30
0.0
 11
7.335281688013202
 21
93.16757686844907
 31
0.0
  0
LINE
  5
987
330
1ED
100
AcDbEntity
  8
0
100
AcDbLine
 10
7.315592309943077
 20
93.11960614355404
 30
0.0
 11
7.331155494458222
 21
93.14662899373372
 31
0.0
  0
LINE
  5
988
330
1ED
100
AcDbEntity
  8
0
100
AcDbLine
 10
7.288385041806327
 20
93.0876911219593
 30
0.0
 11
7.315592309943077
 21
93.11960614355404
 31
0.0
  0
LINE
  5
989
330
1ED
100
AcDbEntity
  8
0
100
AcDbLine
 10
7.249836233076712
 20
93.05204633586539
 30
0.0
 11
7.288385041806327
 21
93.0876911219593
 31
0.0
  0
LINE
  5
98A
330
1ED
100
AcDbEntity
  8
0
100
AcDbLine
 10
7.2022869695433
 20
93.01375260365313
 30
0.0
 11
7.249836233076712
 21
93.05204633586539
 31
0.0
  0
LINE
  5
98B
330
1ED
100
AcDbEntity
  8
0
100
AcDbLine
 10
7.148587972685213
 20
92.97387034656964
 30
0.0
 11
7.2022869695433
 21
93.01375260365313
 31
0.0
  0
LINE
  5
98C
330
1ED
100
AcDbEntity
  8
0
100
AcDbLine
 10
7.091589963981639
 20
92.93345998586216
 30
0.0
 11
7.148587972685213
 21
92.97387034656964
 31
0.0
  0
LINE
  5
98D
330
1ED
100
AcDbEntity
  8
0
100
AcDbLine
 10
7.375347573504861
 20
92.98642985384958
 30
0.0
 11
7.256660743435282
 21
92.93743397466483
 31
0.0
  0
LINE
  5
98E
330
1ED
100
AcDbEntity
  8
0
100
AcDbLine
 10
7.508311959441433
 20
93.02530277641045
 30
0.0
 11
7.375347573504861
 21
92.98642985384958
 31
0.0
  0
LINE
  5
98F
330
1ED
100
AcDbEntity
  8
0
100
AcDbLine
 10
7.655366288267464
 20
93.04836615458315
 30
0.0
 11
7.508311959441433
 21
93.02530277641045
 31
0.0
  0
LINE
  5
990
330
1ED
100
AcDbEntity
  8
0
100
AcDbLine
 10
7.816322947005396
 20
93.04993340060331
 30
0.0
 11
7.655366288267464
 21
93.04836615458315
 31
0.0
  0
LINE
  5
991
330
1ED
100
AcDbEntity
  8
0
100
AcDbLine
 10
7.990994322677742
 20
93.02431792670665
 30
0.0
 11
7.816322947005396
 21
93.04993340060331
 31
0.0
  0
LINE
  5
992
330
1ED
100
AcDbEntity
  8
0
100
AcDbLine
 10
6.929309081589656
 20
92.81966449446748
 30
0.0
 11
6.979099796954719
 21
92.85529663856392
 31
0.0
  0
LINE
  5
993
330
1ED
100
AcDbEntity
  8
0
100
AcDbLine
 10
6.988141718203671
 20
92.78657447501059
 30
0.0
 11
6.928325109792957
 21
92.75284135334995
 31
0.0
  0
LINE
  5
99A
330
1ED
100
AcDbEntity
  8
0
100
AcDbLine
 10
6.979099796954719
 20
92.85529663856392
 30
0.0
 11
7.034143664911758
 21
92.89358194277786
 31
0.0
  0
LINE
  5
99B
330
1ED
100
AcDbEntity
  8
0
100
AcDbLine
 10
7.062870202807153
 20
92.83181969748095
 30
0.0
 11
6.988141718203671
 21
92.78657447501059
 31
0.0
  0
LINE
  5
99C
330
1ED
100
AcDbEntity
  8
0
100
AcDbLine
 10
7.152439082210199
 20
92.88400172662052
 30
0.0
 11
7.062870202807153
 21
92.83181969748095
 31
0.0
  0
LINE
  5
99D
330
1ED
100
AcDbEntity
  8
0
100
AcDbLine
 10
7.034143664911758
 20
92.89358194277786
 30
0.0
 11
7.091589963981639
 21
92.93345998586216
 31
0.0
  0
LINE
  5
99E
330
1ED
100
AcDbEntity
  8
0
100
AcDbLine
 10
7.256660743435282
 20
92.93743397466483
 30
0.0
 11
7.152439082210199
 21
92.88400172662052
 31
0.0
  0
LINE
  5
99F
330
1ED
100
AcDbEntity
  8
0
100
AcDbLine
 10
7.640685106553084
 20
92.39685852812993
 30
0.0
 11
7.640685106553113
 21
93.04606362021644
 31
0.0
  0
LINE
  5
9A2
330
1ED
100
AcDbEntity
  8
0
100
AcDbLine
 10
6.545927355464264
 20
92.88594446984408
 30
0.0
 11
6.409297107318058
 21
92.90326656263315
 31
0.0
  0
LINE
  5
9A3
330
1ED
100
AcDbEntity
  8
0
100
AcDbLine
 10
6.671098724709472
 20
92.89264627935979
 30
0.0
 11
6.545927355464264
 21
92.88594446984408
 31
0.0
  0
LINE
  5
9A4
330
1ED
100
AcDbEntity
  8
0
100
AcDbLine
 10
6.784991849897942
 20
92.91805831945676
 30
0.0
 11
6.671098724709472
 21
92.89264627935979
 31
0.0
  0
LINE
  5
9A5
330
1ED
100
AcDbEntity
  8
0
100
AcDbLine
 10
6.856499737060468
 20
92.76058816373772
 30
0.0
 11
6.887622240295803
 21
92.78774593173579
 31
0.0
  0
LINE
  5
9A6
330
1ED
100
AcDbEntity
  8
0
100
AcDbLine
 10
6.836841005903856
 20
92.73918557232923
 30
0.0
 11
6.856499737060468
 21
92.76058816373772
 31
0.0
  0
LINE
  5
9A7
330
1ED
100
AcDbEntity
  8
0
100
AcDbLine
 10
6.829155223354227
 20
92.72451933148806
 30
0.0
 11
6.836841005903856
 21
92.73918557232923
 31
0.0
  0
LINE
  5
9A8
330
1ED
100
AcDbEntity
  8
0
100
AcDbLine
 10
6.833951565939975
 20
92.71757061519179
 30
0.0
 11
6.829155223354227
 21
92.72451933148806
 31
0.0
  0
LINE
  5
9A9
330
1ED
100
AcDbEntity
  8
0
100
AcDbLine
 10
6.851739210189471
 20
92.71932059741828
 30
0.0
 11
6.833951565939975
 21
92.71757061519179
 31
0.0
  0
LINE
  5
9AA
330
1ED
100
AcDbEntity
  8
0
100
AcDbLine
 10
6.883027332631022
 20
92.73075045214511
 30
0.0
 11
6.851739210189471
 21
92.71932059741828
 31
0.0
  0
LINE
  5
9AB
330
1ED
100
AcDbEntity
  8
0
100
AcDbLine
 10
6.640685106553099
 20
92.39685852812993
 30
0.0
 11
6.640685106553099
 21
92.89101790158623
 31
0.0
  0
LINE
  5
9AC
330
1ED
100
AcDbEntity
  8
0
100
AcDbLine
 10
6.887787365873855
 20
92.95686691841106
 30
0.0
 11
6.784991849897942
 21
92.91805831945676
 31
0.0
  0
LINE
  5
9AD
330
1ED
100
AcDbEntity
  8
0
100
AcDbLine
 10
6.97966590748134
 20
93.00375840449921
 30
0.0
 11
6.887787365873855
 21
92.95686691841106
 31
0.0
  0
LINE
  5
9B0
330
1ED
100
AcDbEntity
  8
0
100
AcDbLine
 10
6.887622240295803
 20
92.78774593173579
 30
0.0
 11
6.929309081589656
 21
92.81966449446748
 31
0.0
  0
LINE
  5
9B1
330
1ED
100
AcDbEntity
  8
0
100
AcDbLine
 10
6.928325109792957
 20
92.75284135334995
 30
0.0
 11
6.883027332631022
 21
92.73075045214511
 31
0.0
  0
DIMENSION
  5
A0D
330
1ED
100
AcDbEntity
  8
0
100
AcDbDimension
  2
*D14
 10
27.16524089603251
 20
98.4345414160783
 30
0.0
 11
25.44024089603251
 21
98.64954141607832
 31
0.0
 70
    32
 71
     5
 42
3.450000000000002
  3
STANDARD
100
AcDbAlignedDimension
 13
23.71524089603251
 23
90.34190699004666
 33
0.0
 14
27.16524089603251
 24
90.34190699004666
 34
0.0
100
AcDbRotatedDimension
1001
ACAD
1000
DSTYLE
1002
{
1070
    41
1040
0.25
1070
    42
1040
0.003937
1070
    43
1040
0.275591
1070
    44
1040
0.070866
1070
    73
1070
     0
1070
    74
1070
     0
1070
    77
1070
     1
1070
   140
1040
0.25
1070
   271
1070
     2
1070
   272
1070
     2
1070
   279
1070
     0
1002
}
  0
ENDSEC
  0
SECTION
  2
OBJECTS
  0
DICTIONARY
  5
185
330
0
100
AcDbDictionary
281
     1
  3
ACAD_CIP_PREVIOUS_PRODUCT_INFO
350
9C6
  3
ACAD_COLOR
350
1E3
  3
ACAD_GROUP
350
186
  3
ACAD_LAYOUT
350
1E2
  3
ACAD_MATERIAL
350
189
  3
ACAD_MLEADERSTYLE
350
1E6
  3
ACAD_MLINESTYLE
350
1DF
  3
ACAD_PLOTSETTINGS
350
1E1
  3
ACAD_PLOTSTYLENAME
350
187
  3
ACAD_SCALELIST
350
1B3
  3
ACAD_TABLESTYLE
350
1E4
  3
ACAD_VISUALSTYLE
350
1A2
  3
ACDB_RECOMPOSE_DATA
350
A24
  3
AcDbVariableDictionary
350
242
  3
DWGPROPS
350
A25
  0
DICTIONARY
  5
9EA
330
17B
100
AcDbDictionary
280
     1
281
     1
  3
ACAD_LAYERSTATES
360
9EB
  0
DICTIONARY
  5
222
330
1D5
100
AcDbDictionary
280
     1
281
     1
  3
ADSK_XREC_LAYER_RECONCILED
360
223
  0
DICTIONARY
  5
224
330
1FC
100
AcDbDictionary
280
     1
281
     1
  3
ADSK_XREC_LAYER_RECONCILED
360
225
  0
DICTIONARY
  5
226
330
1FD
100
AcDbDictionary
280
     1
281
     1
  3
ADSK_XREC_LAYER_RECONCILED
360
227
  0
DICTIONARY
  5
228
330
1FE
100
AcDbDictionary
280
     1
281
     1
  3
ADSK_XREC_LAYER_RECONCILED
360
229
  0
DICTIONARY
  5
22A
330
1FF
100
AcDbDictionary
280
     1
281
     1
  3
ADSK_XREC_LAYER_RECONCILED
360
22B
  0
DICTIONARY
  5
22C
330
200
100
AcDbDictionary
280
     1
281
     1
  3
ADSK_XREC_LAYER_RECONCILED
360
22D
  0
DICTIONARY
  5
22E
330
202
100
AcDbDictionary
280
     1
281
     1
  3
ADSK_XREC_LAYER_RECONCILED
360
22F
  0
DICTIONARY
  5
230
330
203
100
AcDbDictionary
280
     1
281
     1
  3
ADSK_XREC_LAYER_RECONCILED
360
231
  0
DICTIONARY
  5
232
330
204
100
AcDbDictionary
280
     1
281
     1
  3
ADSK_XREC_LAYER_RECONCILED
360
233
  0
DICTIONARY
  5
234
330
205
100
AcDbDictionary
280
     1
281
     1
  3
ADSK_XREC_LAYER_RECONCILED
360
235
  0
DICTIONARY
  5
236
330
206
100
AcDbDictionary
280
     1
281
     1
  3
ADSK_XREC_LAYER_RECONCILED
360
237
  0
DICTIONARY
  5
238
330
207
100
AcDbDictionary
280
     1
281
     1
  3
ADSK_XREC_LAYER_RECONCILED
360
239
  0
DICTIONARY
  5
23A
330
208
100
AcDbDictionary
280
     1
281
     1
  3
ADSK_XREC_LAYER_RECONCILED
360
23B
  0
DICTIONARY
  5
23C
330
209
100
AcDbDictionary
280
     1
281
     1
  3
ADSK_XREC_LAYER_RECONCILED
360
23D
  0
DICTIONARY
  5
23E
330
20A
100
AcDbDictionary
280
     1
281
     1
  3
ADSK_XREC_LAYER_RECONCILED
360
23F
  0
DICTIONARY
  5
240
330
20B
100
AcDbDictionary
280
     1
281
     1
  3
ADSK_XREC_LAYER_RECONCILED
360
241
  0
DICTIONARY
  5
9C8
330
1ED
100
AcDbDictionary
280
     1
281
     1
  3
ACAD_SORTENTS
360
9C9
  0
XRECORD
  5
9C6
102
{ACAD_REACTORS
330
185
102
}
330
185
100
AcDbXrecord
280
     1
300
ACDLT
300
2012
300
ACDLT_F_S
  0
DICTIONARY
  5
1E3
102
{ACAD_REACTORS
330
185
102
}
330
185
100
AcDbDictionary
281
     1
  0
DICTIONARY
  5
186
102
{ACAD_REACTORS
330
185
102
}
330
185
100
AcDbDictionary
281
     1
  0
DICTIONARY
  5
1E2
102
{ACAD_REACTORS
330
185
102
}
330
185
100
AcDbDictionary
281
     1
  3
Layout1
350
1EC
  3
Model
350
1F0
  0
DICTIONARY
  5
189
102
{ACAD_REACTORS
330
185
102
}
330
185
100
AcDbDictionary
281
     1
  3
ByBlock
350
192
  3
ByLayer
350
18A
  3
Global
350
19A
  0
DICTIONARY
  5
1E6
102
{ACAD_REACTORS
330
185
102
}
330
185
100
AcDbDictionary
281
     1
  3
Standard
350
1E7
  0
DICTIONARY
  5
1DF
102
{ACAD_REACTORS
330
185
102
}
330
185
100
AcDbDictionary
281
     1
  3
Standard
350
1E0
  0
DICTIONARY
  5
1E1
102
{ACAD_REACTORS
330
185
102
}
330
185
100
AcDbDictionary
281
     1
  0
ACDBDICTIONARYWDFLT
  5
187
102
{ACAD_REACTORS
330
185
102
}
330
185
100
AcDbDictionary
281
     1
  3
Normal
350
188
100
AcDbDictionaryWithDefault
340
188
  0
DICTIONARY
  5
1B3
102
{ACAD_REACTORS
330
185
102
}
330
185
100
AcDbDictionary
281
     1
  3
A0
350
1B4
  3
A1
350
1B5
  3
A2
350
1B6
  3
A3
350
1B7
  3
A4
350
1B8
  3
A5
350
1B9
  3
A6
350
1BA
  3
A7
350
1BB
  3
A8
350
1BC
  3
A9
350
1BD
  3
B0
350
1BE
  3
B1
350
1BF
  3
B2
350
1C0
  3
B3
350
1C1
  3
B4
350
1C2
  3
B5
350
1C3
  3
B6
350
1C4
  3
B7
350
1C5
  3
B8
350
1C6
  3
B9
350
1C7
  3
C0
350
1C8
  3
C1
350
1C9
  3
C2
350
1CA
  3
C3
350
1CB
  3
C4
350
1CC
  3
C5
350
1CD
  3
C6
350
1CE
  3
C7
350
1CF
  3
C8
350
1D0
  3
C9
350
1D1
  3
D0
350
1D2
  3
D1
350
1D3
  3
D2
350
1D4
  0
DICTIONARY
  5
1E4
102
{ACAD_REACTORS
330
185
102
}
330
185
100
AcDbDictionary
281
     1
  3
Standard
350
1E5
  0
DICTIONARY
  5
1A2
102
{ACAD_REACTORS
330
185
102
}
330
185
100
AcDbDictionary
281
     1
  3
2dWireframe
350
1A8
  3
3D Hidden
350
1AA
  3
3dWireframe
350
1A9
  3
Basic
350
1A7
  3
Brighten
350
1AE
  3
ColorChange
350
1B2
  3
Conceptual
350
1AB
  3
Dim
350
1AD
  3
EdgeColorOff
350
9BF
  3
Facepattern
350
1B1
  3
Flat
350
1A3
  3
FlatWithEdges
350
1A4
  3
Gouraud
350
1A5
  3
GouraudWithEdges
350
1A6
  3
Hidden
350
9B7
  3
JitterOff
350
9BD
  3
Linepattern
350
1B0
  3
OverhangOff
350
9BE
  3
Realistic
350
1AC
  3
Shaded
350
9BC
  3
Shaded with edges
350
9BB
  3
Shades of Gray
350
9B8
  3
Sketchy
350
9B9
  3
Thicken
350
1AF
  3
Wireframe
350
9B6
  3
X-Ray
350
9BA
  0
XRECORD
  5
A24
102
{ACAD_REACTORS
330
185
102
}
330
185
100
AcDbXrecord
280
     1
 90
        1
330
1E5
  0
DICTIONARY
  5
242
102
{ACAD_REACTORS
330
185
102
}
330
185
100
AcDbDictionary
281
     1
  3
CANNOSCALE
350
245
  3
CMLEADERSTYLE
350
244
  3
CTABLESTYLE
350
243
  3
DIMASSOC
350
248
  3
INDEXCTL
350
247
  3
LAYEREVAL
350
A03
  3
LAYERNOTIFY
350
A04
  3
LIGHTINGUNITS
350
A02
  3
MSLTSCALE
350
A01
  3
SORTENTS
350
246
  3
XCLIPFRAME
350
A22
  0
XRECORD
  5
A25
102
{ACAD_REACTORS
330
185
102
}
330
185
100
AcDbXrecord
280
     1
  1
DWGPROPS COOKIE
  2

  3

  4

  6

  7

  8
luk
  9

300
=
301
=
302
=
303
=
304
=
305
=
306
=
307
=
308
=
309
=
 40
0.6666920486111111
 41
2448030.426810995
 42
2456161.438325648
  1

 90
        0
  0
DICTIONARY
  5
9EB
102
{ACAD_REACTORS
330
9EA
102
}
330
9EA
100
AcDbDictionary
281
     1
  0
XRECORD
  5
223
102
{ACAD_REACTORS
330
222
102
}
330
222
100
AcDbXrecord
280
     1
290
     1
  0
XRECORD
  5
225
102
{ACAD_REACTORS
330
224
102
}
330
224
100
AcDbXrecord
280
     1
290
     1
  0
XRECORD
  5
227
102
{ACAD_REACTORS
330
226
102
}
330
226
100
AcDbXrecord
280
     1
290
     1
  0
XRECORD
  5
229
102
{ACAD_REACTORS
330
228
102
}
330
228
100
AcDbXrecord
280
     1
290
     1
  0
XRECORD
  5
22B
102
{ACAD_REACTORS
330
22A
102
}
330
22A
100
AcDbXrecord
280
     1
290
     1
  0
XRECORD
  5
22D
102
{ACAD_REACTORS
330
22C
102
}
330
22C
100
AcDbXrecord
280
     1
290
     1
  0
XRECORD
  5
22F
102
{ACAD_REACTORS
330
22E
102
}
330
22E
100
AcDbXrecord
280
     1
290
     1
  0
XRECORD
  5
231
102
{ACAD_REACTORS
330
230
102
}
330
230
100
AcDbXrecord
280
     1
290
     1
  0
XRECORD
  5
233
102
{ACAD_REACTORS
330
232
102
}
330
232
100
AcDbXrecord
280
     1
290
     1
  0
XRECORD
  5
235
102
{ACAD_REACTORS
330
234
102
}
330
234
100
AcDbXrecord
280
     1
290
     1
  0
XRECORD
  5
237
102
{ACAD_REACTORS
330
236
102
}
330
236
100
AcDbXrecord
280
     1
290
     1
  0
XRECORD
  5
239
102
{ACAD_REACTORS
330
238
102
}
330
238
100
AcDbXrecord
280
     1
290
     1
  0
XRECORD
  5
23B
102
{ACAD_REACTORS
330
23A
102
}
330
23A
100
AcDbXrecord
280
     1
290
     1
  0
XRECORD
  5
23D
102
{ACAD_REACTORS
330
23C
102
}
330
23C
100
AcDbXrecord
280
     1
290
     1
  0
XRECORD
  5
23F
102
{ACAD_REACTORS
330
23E
102
}
330
23E
100
AcDbXrecord
280
     1
290
     1
  0
XRECORD
  5
241
102
{ACAD_REACTORS
330
240
102
}
330
240
100
AcDbXrecord
280
     1
290
     1
  0
SORTENTSTABLE
  5
9C9
102
{ACAD_REACTORS
330
9C8
102
}
330
9C8
100
AcDbSortentsTable
330
1ED
331
38B
  5
38B
331
3CA
  5
3CA
331
623
  5
624
331
672
  5
673
331
516
  5
517
331
54D
  5
54E
331
3D2
  5
3D2
331
468
  5
469
331
393
  5
393
331
4D7
  5
4D8
331
5EC
  5
5ED
331
6A9
  5
6AA
331
7B6
  5
7B7
331
805
  5
807
331
6B1
  5
6B2
331
5F4
  5
5F5
331
4DF
  5
4E0
331
51E
  5
51F
331
419
  5
41A
331
39B
  5
39B
331
3DA
  5
3DA
331
470
  5
471
331
67A
  5
67B
331
777
  5
778
331
844
  5
845
331
84C
  5
84D
331
98F
  5
990
331
77F
  5
780
331
7BE
  5
7C0
331
6B9
  5
6BA
331
5FC
  5
5FD
331
478
  5
479
331
4E7
  5
4E8
331
3A3
  5
3A3
331
421
  5
422
331
526
  5
527
331
633
  5
634
331
6F8
  5
6F9
331
815
  5
816
331
960
  5
961
331
700
  5
701
331
787
  5
788
331
68A
  5
68B
331
6C1
  5
6C2
331
52E
  5
52F
331
5B5
  5
5B6
331
4EF
  5
4F0
331
604
  5
605
331
63B
  5
63C
331
7CE
  5
7CF
331
78F
  5
790
331
968
  5
969
331
99F
  5
9A2
331
9A7
  5
9A8
331
3EA
  5
3EB
331
429
  5
42A
331
708
  5
70A
331
60C
  5
60D
331
653
  5
654
331
536
  5
537
331
5CD
  5
5CE
331
431
  5
432
331
488
  5
489
331
3B3
  5
3B3
331
4F7
  5
4F8
331
6C9
  5
6CA
331
970
  5
971
331
69A
  5
69B
331
6D1
  5
6D2
331
3BB
  5
3BB
331
4FF
  5
500
331
614
  5
615
331
65B
  5
65C
331
797
  5
798
331
79F
  5
7A0
331
7F6
  5
7F7
331
82D
  5
82E
331
6A2
  5
6A3
331
6D9
  5
6DA
331
61C
  5
61D
331
663
  5
664
331
718
  5
71A
331
3C3
  5
3C3
331
507
  5
508
331
546
  5
547
331
5DD
  5
5DE
331
835
  5
836
331
980
  5
981
331
7A7
  5
7A8
331
6E1
  5
6E2
331
7FE
  5
7FF
331
5E5
  5
5E6
331
50F
  5
510
331
66B
  5
66C
331
83D
  5
83E
331
7AF
  5
7B0
331
38C
  5
38C
331
4D0
  5
4D1
331
770
  5
771
331
673
  5
674
331
6AA
  5
6AB
331
54E
  5
54F
331
5ED
  5
5EE
331
469
  5
46A
331
4D8
  5
4D9
331
412
  5
415
331
394
  5
394
331
3D3
  5
3D3
331
517
  5
518
331
624
  5
625
331
6E9
  5
6EA
331
845
  5
846
331
988
  5
989
331
778
  5
779
331
62C
  5
630
331
67B
  5
67C
331
5F5
  5
5F6
331
6B2
  5
6B3
331
7B7
  5
7B8
331
471
  5
472
331
4E0
  5
4E1
331
41A
  5
420
331
51F
  5
520
331
80E
  5
80F
331
6F9
  5
6FA
331
780
  5
781
331
84D
  5
84E
331
634
  5
635
331
683
  5
684
331
527
  5
528
331
3E3
  5
3E3
331
422
  5
423
331
479
  5
47A
331
3A4
  5
3A4
331
4E8
  5
4E9
331
5FD
  5
5FE
331
6BA
  5
6BB
331
990
  5
991
331
816
  5
817
331
961
  5
962
331
68B
  5
68C
331
6C2
  5
6C3
331
605
  5
606
331
63C
  5
63D
331
52F
  5
530
331
5B6
  5
5CA
331
701
  5
702
331
788
  5
789
331
969
  5
96A
331
7CF
  5
7D0
331
4F0
  5
4F1
331
3EB
  5
3EC
331
42A
  5
42C
331
481
  5
482
331
790
  5
791
331
6CA
  5
6CB
331
5CE
  5
5CF
331
60D
  5
60E
331
654
  5
655
331
489
  5
48A
331
4F8
  5
4F9
331
3B4
  5
3B4
331
432
  5
433
331
537
  5
538
331
971
  5
972
331
826
  5
827
331
798
  5
799
331
8AC
  5
8B9
331
69B
  5
69C
331
6D2
  5
6D3
331
9A8
  5
9A9
331
3BC
  5
3BC
331
500
  5
501
331
615
  5
616
331
65C
  5
65D
331
9B0
  5
9B1
331
7F7
  5
7F8
331
82E
  5
82F
331
7A0
  5
7A1
331
61D
  5
61E
331
664
  5
665
331
547
  5
548
331
5DE
  5
5DF
331
6A3
  5
6A4
331
45A
  5
45B
331
3C4
  5
3C4
331
508
  5
509
331
6DA
  5
6DB
331
981
  5
982
331
7FF
  5
800
331
836
  5
837
331
6E2
  5
6E3
331
66C
  5
66D
331
5E6
  5
5E7
331
7A8
  5
7A9
331
83E
  5
83F
331
510
  5
511
331
38D
  5
38D
331
4D1
  5
4D2
331
7B0
  5
7B1
331
6AB
  5
6AC
331
6EA
  5
6EB
331
625
  5
628
331
674
  5
675
331
771
  5
772
331
518
  5
519
331
54F
  5
550
331
3D4
  5
3D4
331
46A
  5
46B
331
395
  5
395
331
4D9
  5
4DA
331
5EE
  5
5EF
331
989
  5
98A
331
846
  5
847
331
7B8
  5
7B9
331
807
  5
808
331
885
  5
892
331
6B3
  5
6B4
331
6F2
  5
6F5
331
5F6
  5
5F7
331
4E1
  5
4E2
331
520
  5
521
331
472
  5
473
331
67C
  5
67D
331
779
  5
77A
331
84E
  5
84F
331
991
  5
992
331
781
  5
782
331
7C0
  5
7C1
331
684
  5
685
331
6BB
  5
6BC
331
5AF
  5
5B0
331
5FE
  5
5FF
331
635
  5
636
331
6FA
  5
6FC
331
80F
  5
810
331
47A
  5
47B
331
4E9
  5
4EA
331
3A5
  5
3A5
331
3E4
  5
3E4
331
423
  5
425
331
528
  5
529
331
817
  5
818
331
962
  5
963
331
702
  5
703
331
789
  5
78A
331
63D
  5
63F
331
68C
  5
68D
331
6C3
  5
6C4
331
606
  5
607
331
85E
  5
86B
331
96A
  5
96B
331
530
  5
531
331
482
  5
483
331
4F1
  5
4F2
331
3EC
  5
3ED
331
7D0
  5
7D1
331
70A
  5
70B
331
791
  5
792
331
60E
  5
60F
331
655
  5
656
331
538
  5
539
331
5CF
  5
5D0
331
694
  5
696
331
3F4
  5
3F5
331
433
  5
434
331
48A
  5
48B
331
4F9
  5
4FA
331
6CB
  5
6CC
331
972
  5
973
331
9A9
  5
9AA
331
827
  5
828
331
69C
  5
69D
331
6D3
  5
6D4
331
616
  5
617
331
65D
  5
65E
331
3BD
  5
3BD
331
501
  5
502
331
540
  5
541
331
799
  5
79A
331
9B1
  5
9C7
331
71A
  5
71B
331
7A1
  5
7A2
331
6A4
  5
6A5
331
6DB
  5
6DC
331
5DF
  5
5E0
331
509
  5
50B
331
61E
  5
61F
331
3C5
  5
3C5
331
45B
  5
45C
331
665
  5
666
331
7F8
  5
7F9
331
82F
  5
830
331
837
  5
838
331
7A9
  5
7AA
331
982
  5
983
331
6E3
  5
6E4
331
5E7
  5
5E8
331
66D
  5
66E
331
83F
  5
840
331
38E
  5
38E
331
4D2
  5
4D3
331
511
  5
512
331
548
  5
549
331
772
  5
773
331
7B1
  5
7B2
331
675
  5
676
331
550
  5
551
331
5EF
  5
5F1
331
6AC
  5
6AD
331
46B
  5
46C
331
4DA
  5
4DB
331
396
  5
396
331
3D5
  5
3D5
331
519
  5
51A
331
6EB
  5
6EC
331
800
  5
801
331
808
  5
809
331
847
  5
848
331
98A
  5
98B
331
77A
  5
77B
331
67D
  5
67F
331
521
  5
522
331
473
  5
474
331
4E2
  5
4E3
331
5F7
  5
5F8
331
6B4
  5
6B5
331
7B9
  5
7BA
331
992
  5
993
331
7C1
  5
7C2
331
810
  5
811
331
6BC
  5
6BD
331
636
  5
637
331
685
  5
686
331
782
  5
783
331
84F
  5
851
331
529
  5
52A
331
5B0
  5
5B1
331
3E5
  5
3E5
331
47B
  5
47C
331
3A6
  5
3A6
331
4EA
  5
4EB
331
5FF
  5
600
331
99A
  5
99B
331
818
  5
819
331
963
  5
964
331
68D
  5
68E
331
6C4
  5
6C5
331
607
  5
608
331
703
  5
705
331
78A
  5
78B
331
96B
  5
96C
331
9A2
  5
9A3
331
483
  5
484
331
4F2
  5
4F3
331
3AE
  5
3AE
331
3ED
  5
3EE
331
42C
  5
42D
331
531
  5
532
331
70B
  5
70C
331
792
  5
793
331
6CC
  5
6CD
331
7D1
  5
7D2
331
5D0
  5
5D1
331
60F
  5
610
331
656
  5
657
331
48B
  5
48C
331
4FA
  5
4FB
331
3F5
  5
3F6
331
434
  5
435
331
539
  5
53A
331
828
  5
829
331
79A
  5
79B
331
973
  5
974
331
65E
  5
65F
331
69D
  5
69E
331
6D4
  5
6D5
331
9AA
  5
9AB
331
541
  5
542
331
502
  5
503
331
617
  5
618
331
7F9
  5
7FA
331
830
  5
831
331
71B
  5
770
331
7A2
  5
7A3
331
61F
  5
620
331
666
  5
667
331
45C
  5
465
331
5E0
  5
5E1
331
6A5
  5
6A6
331
6DC
  5
6DD
331
983
  5
984
331
838
  5
839
331
6E4
  5
6E7
331
66E
  5
66F
331
7AA
  5
7AB
331
512
  5
513
331
549
  5
54A
331
3CE
  5
3CE
331
38F
  5
38F
331
4D3
  5
4D4
331
5E8
  5
5E9
331
7B2
  5
7B3
331
801
  5
802
331
6AD
  5
6AE
331
6EC
  5
6ED
331
51A
  5
51B
331
551
  5
5AF
331
676
  5
677
331
773
  5
774
331
840
  5
841
331
415
  5
416
331
3D6
  5
3D6
331
46C
  5
46D
331
397
  5
397
331
4DB
  5
4DC
331
848
  5
849
331
98B
  5
98C
331
77B
  5
77C
331
5F8
  5
5F9
331
6B5
  5
6B7
331
7BA
  5
7BB
331
4E3
  5
4E4
331
522
  5
523
331
809
  5
80A
331
3DE
  5
3DE
331
474
  5
475
331
993
  5
99A
331
95C
  5
95D
331
783
  5
784
331
7C2
  5
7C3
331
686
  5
687
331
6BD
  5
6BE
331
52A
  5
52B
331
5B1
  5
5B2
331
47C
  5
47D
331
4EB
  5
4ED
331
3A7
  5
3A7
331
3E6
  5
3E6
331
425
  5
426
331
600
  5
601
331
637
  5
638
331
6FC
  5
6FF
331
811
  5
812
331
964
  5
965
331
7CA
  5
7CB
331
819
  5
826
331
78B
  5
78C
331
89F
  5
8AC
331
63F
  5
651
331
68E
  5
68F
331
6C5
  5
6C6
331
99B
  5
99C
331
9A3
  5
9A4
331
96C
  5
96D
331
532
  5
533
331
484
  5
485
331
4F3
  5
4F4
331
608
  5
609
331
3AF
  5
3AF
331
3EE
  5
3EF
331
42D
  5
42E
331
7D2
  5
7D3
331
6CD
  5
6CE
331
70C
  5
70D
331
793
  5
794
331
610
  5
611
331
657
  5
658
331
53A
  5
53B
331
5D1
  5
5D2
331
696
  5
697
331
3F6
  5
3F7
331
435
  5
436
331
48C
  5
4CF
331
4FB
  5
4FC
331
974
  5
975
331
9AB
  5
9AC
331
7F2
  5
7F3
331
829
  5
82A
331
69E
  5
69F
331
6D5
  5
6D6
331
618
  5
619
331
65F
  5
660
331
503
  5
504
331
542
  5
543
331
714
  5
715
331
79B
  5
79C
331
97C
  5
97E
331
878
  5
885
331
7A3
  5
7A4
331
6A6
  5
6A7
331
6DD
  5
6DE
331
7FA
  5
7FB
331
5E1
  5
5E2
331
3C7
  5
3C7
331
50B
  5
50C
331
667
  5
668
331
831
  5
832
331
839
  5
83A
331
66F
  5
670
331
7AB
  5
7AC
331
984
  5
985
331
5E9
  5
5EA
331
620
  5
621
331
4D4
  5
4D5
331
513
  5
514
331
390
  5
390
331
3CF
  5
3CF
331
465
  5
466
331
54A
  5
54B
331
802
  5
803
331
841
  5
842
331
774
  5
775
331
7B3
  5
7B4
331
677
  5
678
331
6AE
  5
6AF
331
5F1
  5
5F2
331
46D
  5
46E
331
4DC
  5
4DD
331
416
  5
417
331
398
  5
398
331
3D7
  5
3D7
331
51B
  5
51C
331
628
  5
62C
331
6ED
  5
6EE
331
80A
  5
80B
331
849
  5
84A
331
98C
  5
98D
331
6F5
  5
6F6
331
630
  5
631
331
67F
  5
680
331
77C
  5
77D
331
523
  5
524
331
475
  5
476
331
4E4
  5
4E5
331
5F9
  5
5FA
331
7BB
  5
7BC
331
95D
  5
95E
331
7C3
  5
7C4
331
812
  5
813
331
851
  5
85E
331
6BE
  5
6BF
331
601
  5
602
331
638
  5
639
331
52B
  5
52C
331
5B2
  5
5B3
331
687
  5
688
331
784
  5
785
331
3E7
  5
3E8
331
426
  5
427
331
47D
  5
47E
331
99C
  5
99D
331
78C
  5
78D
331
7CB
  5
7CC
331
68F
  5
690
331
6C6
  5
6C7
331
705
  5
708
331
965
  5
966
331
96D
  5
96E
331
9A4
  5
9A5
331
3A8
  5
3A8
331
609
  5
60A
331
485
  5
486
331
4F4
  5
4F5
331
3EF
  5
3F0
331
42E
  5
42F
331
533
  5
534
331
5CA
  5
5CB
331
70D
  5
70E
331
794
  5
795
331
697
  5
698
331
6CE
  5
6CF
331
7D3
  5
7D4
331
53B
  5
53C
331
5D2
  5
5DA
331
4FC
  5
4FD
331
611
  5
612
331
3F7
  5
3F8
331
436
  5
437
331
658
  5
659
331
7F3
  5
7F4
331
82A
  5
82B
331
715
  5
716
331
79C
  5
79D
331
975
  5
976
331
660
  5
661
331
69F
  5
6A0
331
6D6
  5
6D7
331
9AC
  5
9AD
331
543
  5
544
331
5DA
  5
5DB
331
504
  5
505
331
619
  5
61A
331
7FB
  5
7FC
331
832
  5
833
331
6DE
  5
6DF
331
7A4
  5
7A5
331
668
  5
669
331
5E2
  5
5E3
331
6A7
  5
6A8
331
50C
  5
50D
331
985
  5
986
331
83A
  5
83B
331
7AC
  5
7AD
331
389
  5
389
331
3C8
  5
3C8
331
621
  5
622
331
670
  5
671
331
514
  5
515
331
54B
  5
54C
331
40F
  5
412
331
3D0
  5
3D0
331
466
  5
467
331
391
  5
391
331
4D5
  5
4D6
331
5EA
  5
5EB
331
8D8
  5
93F
331
7B4
  5
7B5
331
803
  5
804
331
6AF
  5
6B0
331
6EE
  5
6F2
331
5F2
  5
5F3
331
4DD
  5
4DE
331
51C
  5
51D
331
417
  5
418
331
3D8
  5
3D8
331
46E
  5
46F
331
678
  5
679
331
775
  5
776
331
842
  5
843
331
84A
  5
84B
331
98D
  5
98E
331
77D
  5
77E
331
7BC
  5
7BD
331
680
  5
683
331
6B7
  5
6B9
331
5FA
  5
5FB
331
4E5
  5
4E6
331
524
  5
525
331
631
  5
632
331
6F6
  5
6F7
331
80B
  5
80C
331
3A1
  5
3A1
331
476
  5
477
331
813
  5
814
331
785
  5
786
331
688
  5
689
331
6BF
  5
6C0
331
7C4
  5
7C5
331
52C
  5
52D
331
5B3
  5
5B4
331
47E
  5
47F
331
4ED
  5
4EE
331
427
  5
428
331
602
  5
603
331
639
  5
63A
331
95E
  5
95F
331
7CC
  5
7CD
331
966
  5
967
331
78D
  5
78E
331
6C7
  5
6C8
331
99D
  5
99E
331
9A5
  5
9A6
331
96E
  5
96F
331
3E8
  5
3E9
331
60A
  5
60B
331
651
  5
652
331
534
  5
535
331
5CB
  5
5CC
331
690
  5
691
331
42F
  5
430
331
486
  5
487
331
4F5
  5
4F6
331
3F0
  5
3F4
331
7D4
  5
7D5
331
6CF
  5
6D0
331
70E
  5
70F
331
795
  5
796
331
612
  5
613
331
659
  5
65A
331
53C
  5
53D
331
698
  5
699
331
3F8
  5
40F
331
437
  5
438
331
3B9
  5
3B9
331
4FD
  5
4FE
331
976
  5
977
331
9AD
  5
9B0
331
79D
  5
79E
331
7F4
  5
7F5
331
82B
  5
82C
331
6A0
  5
6A1
331
6D7
  5
6D8
331
61A
  5
61B
331
661
  5
662
331
505
  5
506
331
544
  5
545
331
5DB
  5
5DC
331
716
  5
717
331
93F
  5
94F
331
97E
  5
97F
331
8B9
  5
8D8
331
7A5
  5
7A6
331
6DF
  5
6E0
331
7FC
  5
7FD
331
5E3
  5
5E4
331
50D
  5
50E
331
669
  5
66A
331
833
  5
834
331
83B
  5
83C
331
7AD
  5
7AE
331
986
  5
987
331
6E7
  5
6E9
331
94F
  5
95C
331
671
  5
672
331
6A8
  5
6A9
331
54C
  5
54D
331
5EB
  5
5EC
331
4D6
  5
4D7
331
515
  5
516
331
622
  5
623
331
392
  5
392
331
3D1
  5
3D1
331
467
  5
468
331
804
  5
805
331
843
  5
844
331
776
  5
777
331
679
  5
67A
331
5F3
  5
5F4
331
6B0
  5
6B1
331
7B5
  5
7B6
331
46F
  5
470
331
4DE
  5
4DF
331
418
  5
419
331
39A
  5
39A
331
3D9
  5
3D9
331
51D
  5
51E
331
892
  5
89F
331
80C
  5
80E
331
84B
  5
84C
331
98E
  5
98F
331
632
  5
633
331
6F7
  5
6F8
331
77E
  5
77F
331
525
  5
526
331
420
  5
421
331
477
  5
478
331
4E6
  5
4E7
331
5FB
  5
5FC
331
7BD
  5
7BE
331
3A2
  5
3A2
331
3E1
  5
3E1
331
95F
  5
960
331
7C5
  5
7CA
331
814
  5
815
331
689
  5
68A
331
6C0
  5
6C1
331
603
  5
604
331
63A
  5
63B
331
6FF
  5
700
331
4EE
  5
4EF
331
52D
  5
52E
331
5B4
  5
5B5
331
786
  5
787
331
47F
  5
481
331
967
  5
968
331
99E
  5
99F
331
78E
  5
78F
331
7CD
  5
7CE
331
96F
  5
970
331
9A6
  5
9A7
331
3E9
  5
3EA
331
428
  5
429
331
691
  5
694
331
6C8
  5
6C9
331
60B
  5
60C
331
652
  5
653
331
487
  5
488
331
4F6
  5
4F7
331
430
  5
431
331
535
  5
536
331
5CC
  5
5CD
331
86B
  5
878
331
70F
  5
714
331
796
  5
797
331
699
  5
69A
331
6D0
  5
6D1
331
7D5
  5
7F2
331
53D
  5
540
331
4FE
  5
4FF
331
3BA
  5
3BA
331
438
  5
45A
331
613
  5
614
331
65A
  5
65B
331
7F5
  5
7F6
331
82C
  5
82D
331
717
  5
718
331
79E
  5
79F
331
977
  5
97C
331
61B
  5
61C
331
662
  5
663
331
545
  5
546
331
5DC
  5
5DD
331
6A1
  5
6A2
331
4CF
  5
4D0
331
3C2
  5
3C2
331
506
  5
507
331
6D8
  5
6D9
331
7FD
  5
7FE
331
834
  5
835
331
6E0
  5
6E1
331
66A
  5
66B
331
5E4
  5
5E5
331
7A6
  5
7A7
331
50E
  5
50F
331
97F
  5
980
331
987
  5
988
331
7AE
  5
7AF
331
83C
  5
83D
  0
LAYOUT
  5
1EC
102
{ACAD_XDICTIONARY
360
A47
102
}
102
{ACAD_REACTORS
330
1E2
102
}
330
1E2
100
AcDbPlotSettings
  1

  2
hp deskjet 960c
  4

  6

 40
0.0
 41
0.0
 42
0.0
 43
0.0
 44
0.0
 45
0.0
 46
0.0
 47
0.0
 48
0.0
 49
0.0
140
0.0
141
0.0
142
1.0
143
1.0
 70
   688
 72
     0
 73
     0
 74
     5
  7

 75
    16
147
1.0
148
0.0
149
0.0
100
AcDbLayout
  1
Layout1
 70
     1
 71
     1
 10
0.0
 20
0.0
 11
12.0
 21
9.0
 12
0.0
 22
0.0
 32
0.0
 14
1.000000000000000E+20
 24
1.000000000000000E+20
 34
1.000000000000000E+20
 15
-1.000000000000000E+20
 25
-1.000000000000000E+20
 35
-1.000000000000000E+20
146
0.0
 13
0.0
 23
0.0
 33
0.0
 16
1.0
 26
0.0
 36
0.0
 17
0.0
 27
1.0
 37
0.0
 76
     0
330
1E9
  0
LAYOUT
  5
1F0
102
{ACAD_XDICTIONARY
360
9F0
102
}
102
{ACAD_REACTORS
330
1E2
102
}
330
1E2
100
AcDbPlotSettings
  1

  2
PDF995
  4
Letter
  6

 40
3.174999952316283
 41
3.174999952316283
 42
3.175003051757812
 43
3.17498779296875
 44
215.8999938964843
 45
279.3999938964843
 46
0.0
 47
49.27599999999999
 48
42.41116169570632
 49
76.34426225282226
140
60.4396828907328
141
97.9692207151977
142
1.0
143
2.621207200273039
 70
 28340
 72
     0
 73
     1
 74
     4
  7

 75
     0
147
0.3815036063901528
148
-1077.24350707094
149
-1939.144261221685
100
AcDbLayout
  1
Model
 70
     1
 71
     0
 10
0.0
 20
0.0
 11
12.0
 21
9.0
 12
0.0
 22
0.0
 32
0.0
 14
0.0
 24
0.0
 34
0.0
 15
0.0
 25
0.0
 35
0.0
146
0.0
 13
0.0
 23
0.0
 33
0.0
 16
1.0
 26
0.0
 36
0.0
 17
0.0
 27
1.0
 37
0.0
 76
     0
330
1ED
331
9B3
  0
MATERIAL
  5
192
102
{ACAD_XDICTIONARY
360
193
102
}
102
{ACAD_REACTORS
330
189
102
}
330
189
100
AcDbMaterial
  1
ByBlock
 72
     0
 43
0.0208333333333333
 43
0.0
 43
0.0
 43
0.0
 43
0.0
 43
0.0208333333333333
 43
0.0
 43
0.0
 43
0.0
 43
0.0
 43
1.0
 43
0.0
 43
0.0
 43
0.0
 43
0.0
 43
1.0
 77
     0
 47
0.0208333333333333
 47
0.0
 47
0.0
 47
0.0
 47
0.0
 47
0.0208333333333333
 47
0.0
 47
0.0
 47
0.0
 47
0.0
 47
1.0
 47
0.0
 47
0.0
 47
0.0
 47
0.0
 47
1.0
171
     0
 49
0.0208333333333333
 49
0.0
 49
0.0
 49
0.0
 49
0.0
 49
0.0208333333333333
 49
0.0
 49
0.0
 49
0.0
 49
0.0
 49
1.0
 49
0.0
 49
0.0
 49
0.0
 49
0.0
 49
1.0
175
     0
142
0.0208333333333333
142
0.0
142
0.0
142
0.0
142
0.0
142
0.0208333333333333
142
0.0
142
0.0
142
0.0
142
0.0
142
1.0
142
0.0
142
0.0
142
0.0
142
0.0
142
1.0
179
     0
144
0.0208333333333333
144
0.0
144
0.0
144
0.0
144
0.0
144
0.0208333333333333
144
0.0
144
0.0
144
0.0
144
0.0
144
1.0
144
0.0
144
0.0
144
0.0
144
0.0
144
1.0
147
0.0208333333333333
147
0.0
147
0.0
147
0.0
147
0.0
147
0.0208333333333333
147
0.0
147
0.0
147
0.0
147
0.0
147
1.0
147
0.0
147
0.0
147
0.0
147
0.0
147
1.0
  0
MATERIAL
  5
18A
102
{ACAD_XDICTIONARY
360
18B
102
}
102
{ACAD_REACTORS
330
189
102
}
330
189
100
AcDbMaterial
  1
ByLayer
 72
     0
 43
0.0208333333333333
 43
0.0
 43
0.0
 43
0.0
 43
0.0
 43
0.0208333333333333
 43
0.0
 43
0.0
 43
0.0
 43
0.0
 43
1.0
 43
0.0
 43
0.0
 43
0.0
 43
0.0
 43
1.0
 77
     0
 47
0.0208333333333333
 47
0.0
 47
0.0
 47
0.0
 47
0.0
 47
0.0208333333333333
 47
0.0
 47
0.0
 47
0.0
 47
0.0
 47
1.0
 47
0.0
 47
0.0
 47
0.0
 47
0.0
 47
1.0
171
     0
 49
0.0208333333333333
 49
0.0
 49
0.0
 49
0.0
 49
0.0
 49
0.0208333333333333
 49
0.0
 49
0.0
 49
0.0
 49
0.0
 49
1.0
 49
0.0
 49
0.0
 49
0.0
 49
0.0
 49
1.0
175
     0
142
0.0208333333333333
142
0.0
142
0.0
142
0.0
142
0.0
142
0.0208333333333333
142
0.0
142
0.0
142
0.0
142
0.0
142
1.0
142
0.0
142
0.0
142
0.0
142
0.0
142
1.0
179
     0
144
0.0208333333333333
144
0.0
144
0.0
144
0.0
144
0.0
144
0.0208333333333333
144
0.0
144
0.0
144
0.0
144
0.0
144
1.0
144
0.0
144
0.0
144
0.0
144
0.0
144
1.0
147
0.0208333333333333
147
0.0
147
0.0
147
0.0
147
0.0
147
0.0208333333333333
147
0.0
147
0.0
147
0.0
147
0.0
147
1.0
147
0.0
147
0.0
147
0.0
147
0.0
147
1.0
  0
MATERIAL
  5
19A
102
{ACAD_XDICTIONARY
360
19B
102
}
102
{ACAD_REACTORS
330
189
102
}
330
189
100
AcDbMaterial
  1
Global
 72
     0
 43
0.0208333333333333
 43
0.0
 43
0.0
 43
0.0
 43
0.0
 43
0.0208333333333333
 43
0.0
 43
0.0
 43
0.0
 43
0.0
 43
1.0
 43
0.0
 43
0.0
 43
0.0
 43
0.0
 43
1.0
 77
     0
 47
0.0208333333333333
 47
0.0
 47
0.0
 47
0.0
 47
0.0
 47
0.0208333333333333
 47
0.0
 47
0.0
 47
0.0
 47
0.0
 47
1.0
 47
0.0
 47
0.0
 47
0.0
 47
0.0
 47
1.0
171
     0
 49
0.0208333333333333
 49
0.0
 49
0.0
 49
0.0
 49
0.0
 49
0.0208333333333333
 49
0.0
 49
0.0
 49
0.0
 49
0.0
 49
1.0
 49
0.0
 49
0.0
 49
0.0
 49
0.0
 49
1.0
175
     0
142
0.0208333333333333
142
0.0
142
0.0
142
0.0
142
0.0
142
0.0208333333333333
142
0.0
142
0.0
142
0.0
142
0.0
142
1.0
142
0.0
142
0.0
142
0.0
142
0.0
142
1.0
179
     0
144
0.0208333333333333
144
0.0
144
0.0
144
0.0
144
0.0
144
0.0208333333333333
144
0.0
144
0.0
144
0.0
144
0.0
144
1.0
144
0.0
144
0.0
144
0.0
144
0.0
144
1.0
147
0.0208333333333333
147
0.0
147
0.0
147
0.0
147
0.0
147
0.0208333333333333
147
0.0
147
0.0
147
0.0
147
0.0
147
1.0
147
0.0
147
0.0
147
0.0
147
0.0
147
1.0
  0
MLEADERSTYLE
  5
1E7
102
{ACAD_REACTORS
330
1E6
102
}
330
1E6
100
AcDbMLeaderStyle
170
     2
171
     1
172
     0
 90
        2
 40
0.0
 41
0.0
173
     1
 91
-1056964608
340
1DB
 92
       -2
290
     1
 42
0.09
291
     1
 43
0.36
  3
Standard
 44
0.18
300

342
1D6
174
     1
178
     6
175
     1
176
     0
 93
-1056964608
 45
0.18
292
     0
297
     0
 46
0.18
 94
-1056964608
 47
1.0
 49
1.0
140
1.0
293
     1
141
0.0
294
     1
177
     0
142
1.0
295
     0
296
     0
143
0.125
1001
ACAD_MLEADERVER
1070
     2
  0
MLINESTYLE
  5
1E0
102
{ACAD_REACTORS
330
1DF
102
}
330
1DF
100
AcDbMlineStyle
  2
STANDARD
 70
     0
  3

 62
   256
 51
90.0
 52
90.0
 71
     2
 49
0.5
 62
   256
  6
BYLAYER
 49
-0.5
 62
   256
  6
BYLAYER
  0
ACDBPLACEHOLDER
  5
188
102
{ACAD_REACTORS
330
187
102
}
330
187
  0
SCALE
  5
1B4
102
{ACAD_REACTORS
330
1B3
102
}
330
1B3
100
AcDbScale
 70
     0
300
1:1
140
1.0
141
1.0
290
     1
  0
SCALE
  5
1B5
102
{ACAD_REACTORS
330
1B3
102
}
330
1B3
100
AcDbScale
 70
     0
300
1:2
140
1.0
141
2.0
290
     0
  0
SCALE
  5
1B6
102
{ACAD_REACTORS
330
1B3
102
}
330
1B3
100
AcDbScale
 70
     0
300
1:4
140
1.0
141
4.0
290
     0
  0
SCALE
  5
1B7
102
{ACAD_REACTORS
330
1B3
102
}
330
1B3
100
AcDbScale
 70
     0
300
1:5
140
1.0
141
5.0
290
     0
  0
SCALE
  5
1B8
102
{ACAD_REACTORS
330
1B3
102
}
330
1B3
100
AcDbScale
 70
     0
300
1:8
140
1.0
141
8.0
290
     0
  0
SCALE
  5
1B9
102
{ACAD_REACTORS
330
1B3
102
}
330
1B3
100
AcDbScale
 70
     0
300
1:10
140
1.0
141
10.0
290
     0
  0
SCALE
  5
1BA
102
{ACAD_REACTORS
330
1B3
102
}
330
1B3
100
AcDbScale
 70
     0
300
1:16
140
1.0
141
16.0
290
     0
  0
SCALE
  5
1BB
102
{ACAD_REACTORS
330
1B3
102
}
330
1B3
100
AcDbScale
 70
     0
300
1:20
140
1.0
141
20.0
290
     0
  0
SCALE
  5
1BC
102
{ACAD_REACTORS
330
1B3
102
}
330
1B3
100
AcDbScale
 70
     0
300
1:30
140
1.0
141
30.0
290
     0
  0
SCALE
  5
1BD
102
{ACAD_REACTORS
330
1B3
102
}
330
1B3
100
AcDbScale
 70
     0
300
1:40
140
1.0
141
40.0
290
     0
  0
SCALE
  5
1BE
102
{ACAD_REACTORS
330
1B3
102
}
330
1B3
100
AcDbScale
 70
     0
300
1:50
140
1.0
141
50.0
290
     0
  0
SCALE
  5
1BF
102
{ACAD_REACTORS
330
1B3
102
}
330
1B3
100
AcDbScale
 70
     0
300
1:100
140
1.0
141
100.0
290
     0
  0
SCALE
  5
1C0
102
{ACAD_REACTORS
330
1B3
102
}
330
1B3
100
AcDbScale
 70
     0
300
2:1
140
2.0
141
1.0
290
     0
  0
SCALE
  5
1C1
102
{ACAD_REACTORS
330
1B3
102
}
330
1B3
100
AcDbScale
 70
     0
300
4:1
140
4.0
141
1.0
290
     0
  0
SCALE
  5
1C2
102
{ACAD_REACTORS
330
1B3
102
}
330
1B3
100
AcDbScale
 70
     0
300
8:1
140
8.0
141
1.0
290
     0
  0
SCALE
  5
1C3
102
{ACAD_REACTORS
330
1B3
102
}
330
1B3
100
AcDbScale
 70
     0
300
10:1
140
10.0
141
1.0
290
     0
  0
SCALE
  5
1C4
102
{ACAD_REACTORS
330
1B3
102
}
330
1B3
100
AcDbScale
 70
     0
300
100:1
140
100.0
141
1.0
290
     0
  0
SCALE
  5
1C5
102
{ACAD_REACTORS
330
1B3
102
}
330
1B3
100
AcDbScale
 70
     0
300
1/128" = 1'-0"
140
0.0078125
141
12.0
290
     0
  0
SCALE
  5
1C6
102
{ACAD_REACTORS
330
1B3
102
}
330
1B3
100
AcDbScale
 70
     0
300
1/64" = 1'-0"
140
0.015625
141
12.0
290
     0
  0
SCALE
  5
1C7
102
{ACAD_REACTORS
330
1B3
102
}
330
1B3
100
AcDbScale
 70
     0
300
1/32" = 1'-0"
140
0.03125
141
12.0
290
     0
  0
SCALE
  5
1C8
102
{ACAD_REACTORS
330
1B3
102
}
330
1B3
100
AcDbScale
 70
     0
300
1/16" = 1'-0"
140
0.0625
141
12.0
290
     0
  0
SCALE
  5
1C9
102
{ACAD_REACTORS
330
1B3
102
}
330
1B3
100
AcDbScale
 70
     0
300
3/32" = 1'-0"
140
0.09375
141
12.0
290
     0
  0
SCALE
  5
1CA
102
{ACAD_REACTORS
330
1B3
102
}
330
1B3
100
AcDbScale
 70
     0
300
1/8" = 1'-0"
140
0.125
141
12.0
290
     0
  0
SCALE
  5
1CB
102
{ACAD_REACTORS
330
1B3
102
}
330
1B3
100
AcDbScale
 70
     0
300
3/16" = 1'-0"
140
0.1875
141
12.0
290
     0
  0
SCALE
  5
1CC
102
{ACAD_REACTORS
330
1B3
102
}
330
1B3
100
AcDbScale
 70
     0
300
1/4" = 1'-0"
140
0.25
141
12.0
290
     0
  0
SCALE
  5
1CD
102
{ACAD_REACTORS
330
1B3
102
}
330
1B3
100
AcDbScale
 70
     0
300
3/8" = 1'-0"
140
0.375
141
12.0
290
     0
  0
SCALE
  5
1CE
102
{ACAD_REACTORS
330
1B3
102
}
330
1B3
100
AcDbScale
 70
     0
300
1/2" = 1'-0"
140
0.5
141
12.0
290
     0
  0
SCALE
  5
1CF
102
{ACAD_REACTORS
330
1B3
102
}
330
1B3
100
AcDbScale
 70
     0
300
3/4" = 1'-0"
140
0.75
141
12.0
290
     0
  0
SCALE
  5
1D0
102
{ACAD_REACTORS
330
1B3
102
}
330
1B3
100
AcDbScale
 70
     0
300
1" = 1'-0"
140
1.0
141
12.0
290
     0
  0
SCALE
  5
1D1
102
{ACAD_REACTORS
330
1B3
102
}
330
1B3
100
AcDbScale
 70
     0
300
1-1/2" = 1'-0"
140
1.5
141
12.0
290
     0
  0
SCALE
  5
1D2
102
{ACAD_REACTORS
330
1B3
102
}
330
1B3
100
AcDbScale
 70
     0
300
3" = 1'-0"
140
3.0
141
12.0
290
     0
  0
SCALE
  5
1D3
102
{ACAD_REACTORS
330
1B3
102
}
330
1B3
100
AcDbScale
 70
     0
300
6" = 1'-0"
140
6.0
141
12.0
290
     0
  0
SCALE
  5
1D4
102
{ACAD_REACTORS
330
1B3
102
}
330
1B3
100
AcDbScale
 70
     0
300
1'-0" = 1'-0"
140
12.0
141
12.0
290
     0
  0
TABLESTYLE
  5
1E5
102
{ACAD_XDICTIONARY
360
262
102
}
102
{ACAD_REACTORS
330
1E4
102
}
330
1E4
100
AcDbTableStyle
  3
Standard
 70
     0
 71
     0
 40
0.06
 41
0.06
280
     0
281
     0
  7
STANDARD
140
0.18
170
     2
 62
     0
 63
     7
283
     0
274
    -2
284
     1
 64
     0
275
    -2
285
     1
 65
     0
276
    -2
286
     1
 66
     0
277
    -2
287
     1
 67
     0
278
    -2
288
     1
 68
     0
279
    -2
289
     1
 69
     0
  7
STANDARD
140
0.25
170
     5
 62
     0
 63
     7
283
     0
274
    -2
284
     1
 64
     0
275
    -2
285
     1
 65
     0
276
    -2
286
     1
 66
     0
277
    -2
287
     1
 67
     0
278
    -2
288
     1
 68
     0
279
    -2
289
     1
 69
     0
  7
STANDARD
140
0.18
170
     5
 62
     0
 63
     7
283
     0
274
    -2
284
     1
 64
     0
275
    -2
285
     1
 65
     0
276
    -2
286
     1
 66
     0
277
    -2
287
     1
 67
     0
278
    -2
288
     1
 68
     0
279
    -2
289
     1
 69
     0
  0
VISUALSTYLE
  5
1A8
102
{ACAD_XDICTIONARY
360
A30
102
}
102
{ACAD_REACTORS
330
1A2
102
}
330
1A2
100
AcDbVisualStyle
  2
2dWireframe
 70
     4
 71
     0
 72
     2
 73
     0
 90
        0
 40
-0.6
 41
-30.0
 62
     5
 63
     7
 74
     1
 91
        4
 64
     7
 65
   257
 75
     1
175
     1
 42
1.0
 92
        0
 66
   257
 43
1.0
 76
     1
 77
     6
 78
     2
 67
     7
 79
     5
170
     0
171
     0
290
     0
174
     0
 93
        1
 44
0.0
173
     0
291
     0
 45
0.0
1001
ACAD
1000
AcDbSavedByObjectVersion
1070
     0
  0
VISUALSTYLE
  5
1AA
102
{ACAD_XDICTIONARY
360
A34
102
}
102
{ACAD_REACTORS
330
1A2
102
}
330
1A2
100
AcDbVisualStyle
  2
3D Hidden
 70
     6
 71
     1
 72
     2
 73
     2
 90
        0
 40
-0.6
 41
-30.0
 62
     5
 63
     7
 74
     2
 91
        2
 64
     7
 65
   257
 75
     2
175
     1
 42
40.0
 92
        0
 66
   257
 43
1.0
 76
     1
 77
     6
 78
     2
 67
     7
 79
     3
170
     0
171
     0
290
     0
174
     0
 93
        1
 44
0.0
173
     0
291
     0
 45
0.0
1001
ACAD
1000
AcDbSavedByObjectVersion
1070
     0
  0
VISUALSTYLE
  5
1A9
102
{ACAD_XDICTIONARY
360
A32
102
}
102
{ACAD_REACTORS
330
1A2
102
}
330
1A2
100
AcDbVisualStyle
  2
3dWireframe
 70
     5
 71
     0
 72
     2
 73
     0
 90
        0
 40
-0.6
 41
-30.0
 62
     5
 63
     7
 74
     1
 91
        4
 64
     7
 65
   257
 75
     1
175
     1
 42
1.0
 92
        0
 66
   257
 43
1.0
 76
     1
 77
     6
 78
     2
 67
     7
 79
     5
170
     0
171
     0
290
     0
174
     0
 93
        1
 44
0.0
173
     0
291
     0
 45
0.0
1001
ACAD
1000
AcDbSavedByObjectVersion
1070
     0
  0
VISUALSTYLE
  5
1A7
102
{ACAD_XDICTIONARY
360
A2E
102
}
102
{ACAD_REACTORS
330
1A2
102
}
330
1A2
100
AcDbVisualStyle
  2
Basic
 70
     7
 71
     1
 72
     0
 73
     1
 90
        0
 40
-0.6
 41
-30.0
 62
     5
 63
     7
 74
     0
 91
        4
 64
     7
 65
   257
 75
     1
175
     1
 42
1.0
 92
        8
 66
     7
 43
1.0
 76
     1
 77
     6
 78
     2
 67
     7
 79
     5
170
     0
171
     0
290
     0
174
     0
 93
        1
 44
0.0
173
     0
291
     1
 45
0.0
1001
ACAD
1000
AcDbSavedByObjectVersion
1070
     0
  0
VISUALSTYLE
  5
1AE
102
{ACAD_XDICTIONARY
360
A3C
102
}
102
{ACAD_REACTORS
330
1A2
102
}
330
1A2
100
AcDbVisualStyle
  2
Brighten
 70
    12
 71
     2
 72
     2
 73
     0
 90
        0
 40
-0.6
 41
-30.0
 62
     5
 63
     7
 74
     1
 91
        4
 64
     7
 65
   257
 75
     1
175
     1
 42
1.0
 92
        8
 66
     7
 43
1.0
 76
     1
 77
     6
 78
     2
 67
     7
 79
     5
170
     0
171
     0
290
     0
174
     0
 93
        1
 44
50.0
173
     0
291
     1
 45
0.0
1001
ACAD
1000
AcDbSavedByObjectVersion
1070
     0
  0
VISUALSTYLE
  5
1B2
102
{ACAD_XDICTIONARY
360
A44
102
}
102
{ACAD_REACTORS
330
1A2
102
}
330
1A2
100
AcDbVisualStyle
  2
ColorChange
 70
    16
 71
     2
 72
     2
 73
     3
 90
        0
 40
-0.6
 41
-30.0
 62
     5
 63
     8
 74
     1
 91
        4
 64
     7
 65
   257
 75
     1
175
     1
 42
1.0
 92
        8
 66
     8
 43
1.0
 76
     1
 77
     6
 78
     2
 67
     7
 79
     5
170
     0
171
     0
290
     0
174
     0
 93
        1
 44
0.0
173
     0
291
     1
 45
0.0
1001
ACAD
1000
AcDbSavedByObjectVersion
1070
     0
  0
VISUALSTYLE
  5
1AB
102
{ACAD_XDICTIONARY
360
A36
102
}
102
{ACAD_REACTORS
330
1A2
102
}
330
1A2
100
AcDbVisualStyle
  2
Conceptual
 70
     9
 71
     3
 72
     2
 73
     0
 90
        0
 40
-0.6
 41
-30.0
 62
     5
 63
     7
 74
     2
 91
        2
 64
     7
 65
   257
 75
     1
175
     1
 42
40.0
 92
        8
 66
     7
 43
1.0
 76
     1
 77
     6
 78
     2
 67
     7
 79
     3
170
     0
171
     0
290
     0
174
     0
 93
        1
 44
0.0
173
     0
291
     0
 45
0.0
1001
ACAD
1000
AcDbSavedByObjectVersion
1070
     0
  0
VISUALSTYLE
  5
1AD
102
{ACAD_XDICTIONARY
360
A3A
102
}
102
{ACAD_REACTORS
330
1A2
102
}
330
1A2
100
AcDbVisualStyle
  2
Dim
 70
    11
 71
     2
 72
     2
 73
     0
 90
        0
 40
-0.6
 41
-30.0
 62
     5
 63
     7
 74
     1
 91
        4
 64
     7
 65
   257
 75
     1
175
     1
 42
1.0
 92
        8
 66
     7
 43
1.0
 76
     1
 77
     6
 78
     2
 67
     7
 79
     5
170
     0
171
     0
290
     0
174
     0
 93
        1
 44
-50.0
173
     0
291
     1
 45
0.0
1001
ACAD
1000
AcDbSavedByObjectVersion
1070
     0
  0
VISUALSTYLE
  5
9BF
102
{ACAD_XDICTIONARY
360
A5C
102
}
102
{ACAD_REACTORS
330
1A2
102
}
330
1A2
100
AcDbVisualStyle
  2
EdgeColorOff
 70
    22
 71
     2
 72
     2
 73
     0
 90
        0
 40
-0.6
 41
-30.0
 62
     5
 63
     7
 74
     1
 91
        4
 64
     7
 65
   257
 75
     1
175
     1
 42
1.0
 92
        8
 66
     7
 43
1.0
 76
     1
 77
     6
 78
     2
 67
     7
 79
     5
170
     0
171
     0
290
     0
174
     0
 93
        1
 44
0.0
173
     0
291
     1
 45
0.0
1001
ACAD
1000
AcDbSavedByObjectVersion
1070
     0
  0
VISUALSTYLE
  5
1B1
102
{ACAD_XDICTIONARY
360
A42
102
}
102
{ACAD_REACTORS
330
1A2
102
}
330
1A2
100
AcDbVisualStyle
  2
Facepattern
 70
    15
 71
     2
 72
     2
 73
     0
 90
        0
 40
-0.6
 41
-30.0
 62
     5
 63
     7
 74
     1
 91
        4
 64
     7
 65
   257
 75
     1
175
     1
 42
1.0
 92
        8
 66
     7
 43
1.0
 76
     1
 77
     6
 78
     2
 67
     7
 79
     5
170
     0
171
     0
290
     0
174
     0
 93
        1
 44
0.0
173
     0
291
     1
 45
0.0
1001
ACAD
1000
AcDbSavedByObjectVersion
1070
     0
  0
VISUALSTYLE
  5
1A3
102
{ACAD_XDICTIONARY
360
A26
102
}
102
{ACAD_REACTORS
330
1A2
102
}
330
1A2
100
AcDbVisualStyle
  2
Flat
 70
     0
 71
     2
 72
     1
 73
     1
 90
        2
 40
-0.6
 41
30.0
 62
     5
 63
     7
 74
     0
 91
        4
 64
     7
 65
   257
 75
     1
175
     1
 42
1.0
 92
        8
 66
     7
 43
1.0
 76
     1
 77
     6
 78
     2
 67
     7
 79
     5
170
     0
171
     0
290
     0
174
     0
 93
       13
 44
0.0
173
     0
291
     1
 45
0.0
1001
ACAD
1000
AcDbSavedByObjectVersion
1070
     0
  0
VISUALSTYLE
  5
1A4
102
{ACAD_XDICTIONARY
360
A28
102
}
102
{ACAD_REACTORS
330
1A2
102
}
330
1A2
100
AcDbVisualStyle
  2
FlatWithEdges
 70
     1
 71
     2
 72
     1
 73
     1
 90
        2
 40
-0.6
 41
30.0
 62
     5
 63
     7
 74
     1
 91
        4
 64
     7
 65
   257
 75
     1
175
     1
 42
1.0
 92
        0
 66
   257
 43
1.0
 76
     1
 77
     6
 78
     2
 67
     7
 79
     5
170
     0
171
     0
290
     0
174
     0
 93
       13
 44
0.0
173
     0
291
     1
 45
0.0
1001
ACAD
1000
AcDbSavedByObjectVersion
1070
     0
  0
VISUALSTYLE
  5
1A5
102
{ACAD_XDICTIONARY
360
A2A
102
}
102
{ACAD_REACTORS
330
1A2
102
}
330
1A2
100
AcDbVisualStyle
  2
Gouraud
 70
     2
 71
     2
 72
     2
 73
     1
 90
        2
 40
-0.6
 41
30.0
 62
     5
 63
     7
 74
     0
 91
        4
 64
     7
 65
   257
 75
     1
175
     1
 42
1.0
 92
        0
 66
     7
 43
1.0
 76
     1
 77
     6
 78
     2
 67
     7
 79
     5
170
     0
171
     0
290
     0
174
     0
 93
       13
 44
0.0
173
     0
291
     1
 45
0.0
1001
ACAD
1000
AcDbSavedByObjectVersion
1070
     0
  0
VISUALSTYLE
  5
1A6
102
{ACAD_XDICTIONARY
360
A2C
102
}
102
{ACAD_REACTORS
330
1A2
102
}
330
1A2
100
AcDbVisualStyle
  2
GouraudWithEdges
 70
     3
 71
     2
 72
     2
 73
     1
 90
        2
 40
-0.6
 41
30.0
 62
     5
 63
     7
 74
     1
 91
        4
 64
     7
 65
   257
 75
     1
175
     1
 42
1.0
 92
        0
 66
   257
 43
1.0
 76
     1
 77
     6
 78
     2
 67
     7
 79
     5
170
     0
171
     0
290
     0
174
     0
 93
       13
 44
0.0
173
     0
291
     1
 45
0.0
1001
ACAD
1000
AcDbSavedByObjectVersion
1070
     0
  0
VISUALSTYLE
  5
9B7
102
{ACAD_XDICTIONARY
360
A4C
102
}
102
{ACAD_REACTORS
330
1A2
102
}
330
1A2
100
AcDbVisualStyle
  2
Hidden
 70
     6
 71
     1
 72
     2
 73
     2
 90
        0
 40
-0.6
 41
-30.0
 62
     5
 63
     7
 74
     2
 91
        2
 64
     7
 65
   257
 75
     2
175
     1
 42
40.0
 92
        0
 66
   257
 43
1.0
 76
     1
 77
     6
 78
     2
 67
     7
 79
     3
170
     0
171
     0
290
     0
174
     0
 93
        1
 44
0.0
173
     0
291
     0
 45
0.0
1001
ACAD
1000
AcDbSavedByObjectVersion
1070
     0
  0
VISUALSTYLE
  5
9BD
102
{ACAD_XDICTIONARY
360
A58
102
}
102
{ACAD_REACTORS
330
1A2
102
}
330
1A2
100
AcDbVisualStyle
  2
JitterOff
 70
    20
 71
     2
 72
     2
 73
     0
 90
        0
 40
-0.6
 41
-30.0
 62
     5
 63
     7
 74
     1
 91
        4
 64
     7
 65
   257
 75
     1
175
     1
 42
1.0
 92
       10
 66
     7
 43
1.0
 76
     1
 77
     6
 78
     2
 67
     7
 79
     5
170
     0
171
     0
290
     0
174
     0
 93
        1
 44
0.0
173
     0
291
     1
 45
0.0
1001
ACAD
1000
AcDbSavedByObjectVersion
1070
     0
  0
VISUALSTYLE
  5
1B0
102
{ACAD_XDICTIONARY
360
A40
102
}
102
{ACAD_REACTORS
330
1A2
102
}
330
1A2
100
AcDbVisualStyle
  2
Linepattern
 70
    14
 71
     2
 72
     2
 73
     0
 90
        0
 40
-0.6
 41
-30.0
 62
     5
 63
     7
 74
     1
 91
        4
 64
     7
 65
   257
 75
     7
175
     7
 42
1.0
 92
        8
 66
     7
 43
1.0
 76
     1
 77
     6
 78
     2
 67
     7
 79
     5
170
     0
171
     0
290
     0
174
     0
 93
        1
 44
0.0
173
     0
291
     1
 45
0.0
1001
ACAD
1000
AcDbSavedByObjectVersion
1070
     0
  0
VISUALSTYLE
  5
9BE
102
{ACAD_XDICTIONARY
360
A5A
102
}
102
{ACAD_REACTORS
330
1A2
102
}
330
1A2
100
AcDbVisualStyle
  2
OverhangOff
 70
    21
 71
     2
 72
     2
 73
     0
 90
        0
 40
-0.6
 41
-30.0
 62
     5
 63
     7
 74
     1
 91
        4
 64
     7
 65
   257
 75
     1
175
     1
 42
1.0
 92
        9
 66
     7
 43
1.0
 76
     1
 77
     6
 78
     2
 67
     7
 79
     5
170
     0
171
     0
290
     0
174
     0
 93
        1
 44
0.0
173
     0
291
     1
 45
0.0
1001
ACAD
1000
AcDbSavedByObjectVersion
1070
     0
  0
VISUALSTYLE
  5
1AC
102
{ACAD_XDICTIONARY
360
A38
102
}
102
{ACAD_REACTORS
330
1A2
102
}
330
1A2
100
AcDbVisualStyle
  2
Realistic
 70
     8
 71
     2
 72
     2
 73
     0
 90
        0
 40
-0.6
 41
-30.0
 62
     5
 63
     7
 74
     1
 91
        0
 64
     7
 65
   257
 75
     1
175
     1
 42
1.0
 92
        8
 66
     8
 43
1.0
 76
     1
 77
     6
 78
     2
 67
     7
 79
     5
170
     0
171
     0
290
     0
174
     0
 93
       13
 44
0.0
173
     0
291
     0
 45
0.0
1001
ACAD
1000
AcDbSavedByObjectVersion
1070
     0
  0
VISUALSTYLE
  5
9BC
102
{ACAD_XDICTIONARY
360
A56
102
}
102
{ACAD_REACTORS
330
1A2
102
}
330
1A2
100
AcDbVisualStyle
  2
Shaded
 70
    27
 71
     2
 72
     2
 73
     1
 90
        2
 40
-0.6
 41
30.0
 62
     5
 63
     7
 74
     0
 91
        4
 64
     7
 65
   257
 75
     1
175
     1
 42
1.0
 92
        8
 66
   257
 43
1.0
 76
     1
 77
     6
 78
     2
 67
     8
 79
     3
170
     0
171
     0
290
     0
174
     0
 93
        5
 44
0.0
173
     0
291
     0
 45
0.0
1001
ACAD
1000
AcDbSavedByObjectVersion
1070
     0
  0
VISUALSTYLE
  5
9BB
102
{ACAD_XDICTIONARY
360
A54
102
}
102
{ACAD_REACTORS
330
1A2
102
}
330
1A2
100
AcDbVisualStyle
  2
Shaded with edges
 70
    26
 71
     2
 72
     2
 73
     1
 90
        2
 40
-0.6
 41
30.0
 62
     5
 63
     7
 74
     1
 91
       10
 64
     7
 65
   257
 75
     2
175
     1
 42
1.0
 92
        8
 66
   257
 43
1.0
 76
     1
 77
     6
 78
     2
 67
     7
 79
     3
170
     0
171
     0
290
     0
174
     0
 93
        5
 44
0.0
173
     0
291
     0
 45
0.0
1001
ACAD
1000
AcDbSavedByObjectVersion
1070
     0
  0
VISUALSTYLE
  5
9B8
102
{ACAD_XDICTIONARY
360
A4E
102
}
102
{ACAD_REACTORS
330
1A2
102
}
330
1A2
100
AcDbVisualStyle
  2
Shades of Gray
 70
    23
 71
     2
 72
     2
 73
     3
 90
        0
 40
-0.6
 41
-30.0
 62
     5
 63
     7
 74
     2
 91
        2
 64
     7
 65
     7
 75
     1
175
     1
 42
40.0
 92
        8
 66
     7
 43
1.0
 76
     1
 77
     6
 78
     2
 67
     7
 79
     3
170
     0
171
     0
290
     0
174
     0
 93
        1
 44
0.0
173
     0
291
     0
 45
0.0
1001
ACAD
1000
AcDbSavedByObjectVersion
1070
     0
  0
VISUALSTYLE
  5
9B9
102
{ACAD_XDICTIONARY
360
A50
102
}
102
{ACAD_REACTORS
330
1A2
102
}
330
1A2
100
AcDbVisualStyle
  2
Sketchy
 70
    24
 71
     1
 72
     2
 73
     2
 90
        0
 40
-0.6
 41
-30.0
 62
     5
 63
     7
 74
     2
 91
        2
 64
     7
 65
     7
 75
     1
175
     1
 42
40.0
 92
       11
 66
     7
 43
1.0
 76
     1
 77
     6
 78
     2
 67
     7
 79
     6
170
     0
171
     0
290
     0
174
     0
 93
        1
 44
0.0
173
     0
291
     0
 45
0.0
1001
ACAD
1000
AcDbSavedByObjectVersion
1070
     0
  0
VISUALSTYLE
  5
1AF
102
{ACAD_XDICTIONARY
360
A3E
102
}
102
{ACAD_REACTORS
330
1A2
102
}
330
1A2
100
AcDbVisualStyle
  2
Thicken
 70
    13
 71
     2
 72
     2
 73
     0
 90
        0
 40
-0.6
 41
-30.0
 62
     5
 63
     7
 74
     1
 91
        4
 64
     7
 65
   257
 75
     1
175
     1
 42
1.0
 92
       12
 66
     7
 43
1.0
 76
     1
 77
     6
 78
     2
 67
     7
 79
     5
170
     0
171
     0
290
     0
174
     0
 93
        1
 44
0.0
173
     0
291
     1
 45
0.0
1001
ACAD
1000
AcDbSavedByObjectVersion
1070
     0
  0
VISUALSTYLE
  5
9B6
102
{ACAD_XDICTIONARY
360
A4A
102
}
102
{ACAD_REACTORS
330
1A2
102
}
330
1A2
100
AcDbVisualStyle
  2
Wireframe
 70
     5
 71
     0
 72
     2
 73
     0
 90
        0
 40
-0.6
 41
-30.0
 62
     5
 63
     7
 74
     1
 91
        4
 64
     7
 65
   257
 75
     1
175
     1
 42
1.0
 92
        0
 66
   257
 43
1.0
 76
     1
 77
     6
 78
     2
 67
     7
 79
     3
170
     0
171
     0
290
     0
174
     0
 93
        1
 44
0.0
173
     0
291
     0
 45
0.0
1001
ACAD
1000
AcDbSavedByObjectVersion
1070
     0
  0
VISUALSTYLE
  5
9BA
102
{ACAD_XDICTIONARY
360
A52
102
}
102
{ACAD_REACTORS
330
1A2
102
}
330
1A2
100
AcDbVisualStyle
  2
X-Ray
 70
    25
 71
     2
 72
     2
 73
     1
 90
        1
 40
0.5
 41
-30.0
 62
     5
 63
     7
 74
     1
 91
        0
 64
     7
 65
   257
 75
     1
175
     1
 42
1.0
 92
        8
 66
     7
 43
1.0
 76
     1
 77
     6
 78
     2
 67
     7
 79
     3
170
     0
171
     0
290
     0
174
     0
 93
       13
 44
0.0
173
     0
291
     0
 45
0.0
1001
ACAD
1000
AcDbSavedByObjectVersion
1070
     0
  0
DICTIONARYVAR
  5
245
102
{ACAD_REACTORS
330
242
102
}
330
242
100
DictionaryVariables
280
     0
  1
1:1
  0
DICTIONARYVAR
  5
244
102
{ACAD_REACTORS
330
242
102
}
330
242
100
DictionaryVariables
280
     0
  1
STANDARD
  0
DICTIONARYVAR
  5
243
102
{ACAD_REACTORS
330
242
102
}
330
242
100
DictionaryVariables
280
     0
  1
STANDARD
  0
DICTIONARYVAR
  5
248
102
{ACAD_REACTORS
330
242
102
}
330
242
100
DictionaryVariables
280
     0
  1
1
  0
DICTIONARYVAR
  5
247
102
{ACAD_REACTORS
330
242
102
}
330
242
100
DictionaryVariables
280
     0
  1
0
  0
DICTIONARYVAR
  5
A03
102
{ACAD_REACTORS
330
242
102
}
330
242
100
DictionaryVariables
280
     0
  1
1
  0
DICTIONARYVAR
  5
A04
102
{ACAD_REACTORS
330
242
102
}
330
242
100
DictionaryVariables
280
     0
  1
15
  0
DICTIONARYVAR
  5
A02
102
{ACAD_REACTORS
330
242
102
}
330
242
100
DictionaryVariables
280
     0
  1
0
  0
DICTIONARYVAR
  5
A01
102
{ACAD_REACTORS
330
242
102
}
330
242
100
DictionaryVariables
280
     0
  1
0
  0
DICTIONARYVAR
  5
246
102
{ACAD_REACTORS
330
242
102
}
330
242
100
DictionaryVariables
280
     0
  1
127
  0
DICTIONARYVAR
  5
A22
102
{ACAD_REACTORS
330
242
102
}
330
242
100
DictionaryVariables
280
     0
  1
2
  0
DICTIONARY
  5
A47
330
1EC
100
AcDbDictionary
280
     1
281
     1
  3
ACAD_XREC_ROUNDTRIP
360
A48
  0
DICTIONARY
  5
9F0
330
1F0
100
AcDbDictionary
280
     1
281
     1
  3
ACAD_XREC_ROUNDTRIP
360
A49
  3
ADSK_XREC_LAYOUTTHUMBNAIL
360
9F1
  0
DICTIONARY
  5
193
330
192
100
AcDbDictionary
280
     1
281
     1
  3
ACAD_XREC_ROUNDTRIP
360
269
  3
BUMPTILE
360
195
  3
DIFFUSETILE
360
194
  3
OPACITYTILE
360
198
  3
REFLECTIONTILE
360
197
  3
REFRACTIONTILE
360
199
  3
SPECULARTILE
360
196
  0
DICTIONARY
  5
18B
330
18A
100
AcDbDictionary
280
     1
281
     1
  3
ACAD_XREC_ROUNDTRIP
360
268
  3
BUMPTILE
360
18D
  3
DIFFUSETILE
360
18C
  3
OPACITYTILE
360
190
  3
REFLECTIONTILE
360
18F
  3
REFRACTIONTILE
360
191
  3
SPECULARTILE
360
18E
  0
DICTIONARY
  5
19B
330
19A
100
AcDbDictionary
280
     1
281
     1
  3
ACAD_XREC_ROUNDTRIP
360
26A
  3
BUMPTILE
360
19D
  3
DIFFUSETILE
360
19C
  3
OPACITYTILE
360
1A0
  3
REFLECTIONTILE
360
19F
  3
REFRACTIONTILE
360
1A1
  3
SPECULARTILE
360
19E
  0
DICTIONARY
  5
262
330
1E5
100
AcDbDictionary
280
     1
281
     1
  3
ACAD_ROUNDTRIP_2008_TABLESTYLE_CELLSTYLEMAP
360
A23
  3
ACAD_XREC_ROUNDTRIP
360
A46
  0
DICTIONARY
  5
A30
330
1A8
100
AcDbDictionary
280
     1
281
     1
  3
ACAD_XREC_ROUNDTRIP
360
A31
  0
DICTIONARY
  5
A34
330
1AA
100
AcDbDictionary
280
     1
281
     1
  3
ACAD_XREC_ROUNDTRIP
360
A35
  0
DICTIONARY
  5
A32
330
1A9
100
AcDbDictionary
280
     1
281
     1
  3
ACAD_XREC_ROUNDTRIP
360
A33
  0
DICTIONARY
  5
A2E
330
1A7
100
AcDbDictionary
280
     1
281
     1
  3
ACAD_XREC_ROUNDTRIP
360
A2F
  0
DICTIONARY
  5
A3C
330
1AE
100
AcDbDictionary
280
     1
281
     1
  3
ACAD_XREC_ROUNDTRIP
360
A3D
  0
DICTIONARY
  5
A44
330
1B2
100
AcDbDictionary
280
     1
281
     1
  3
ACAD_XREC_ROUNDTRIP
360
A45
  0
DICTIONARY
  5
A36
330
1AB
100
AcDbDictionary
280
     1
281
     1
  3
ACAD_XREC_ROUNDTRIP
360
A37
  0
DICTIONARY
  5
A3A
330
1AD
100
AcDbDictionary
280
     1
281
     1
  3
ACAD_XREC_ROUNDTRIP
360
A3B
  0
DICTIONARY
  5
A5C
330
9BF
100
AcDbDictionary
280
     1
281
     1
  3
ACAD_XREC_ROUNDTRIP
360
A5D
  0
DICTIONARY
  5
A42
330
1B1
100
AcDbDictionary
280
     1
281
     1
  3
ACAD_XREC_ROUNDTRIP
360
A43
  0
DICTIONARY
  5
A26
330
1A3
100
AcDbDictionary
280
     1
281
     1
  3
ACAD_XREC_ROUNDTRIP
360
A27
  0
DICTIONARY
  5
A28
330
1A4
100
AcDbDictionary
280
     1
281
     1
  3
ACAD_XREC_ROUNDTRIP
360
A29
  0
DICTIONARY
  5
A2A
330
1A5
100
AcDbDictionary
280
     1
281
     1
  3
ACAD_XREC_ROUNDTRIP
360
A2B
  0
DICTIONARY
  5
A2C
330
1A6
100
AcDbDictionary
280
     1
281
     1
  3
ACAD_XREC_ROUNDTRIP
360
A2D
  0
DICTIONARY
  5
A4C
330
9B7
100
AcDbDictionary
280
     1
281
     1
  3
ACAD_XREC_ROUNDTRIP
360
A4D
  0
DICTIONARY
  5
A58
330
9BD
100
AcDbDictionary
280
     1
281
     1
  3
ACAD_XREC_ROUNDTRIP
360
A59
  0
DICTIONARY
  5
A40
330
1B0
100
AcDbDictionary
280
     1
281
     1
  3
ACAD_XREC_ROUNDTRIP
360
A41
  0
DICTIONARY
  5
A5A
330
9BE
100
AcDbDictionary
280
     1
281
     1
  3
ACAD_XREC_ROUNDTRIP
360
A5B
  0
DICTIONARY
  5
A38
330
1AC
100
AcDbDictionary
280
     1
281
     1
  3
ACAD_XREC_ROUNDTRIP
360
A39
  0
DICTIONARY
  5
A56
330
9BC
100
AcDbDictionary
280
     1
281
     1
  3
ACAD_XREC_ROUNDTRIP
360
A57
  0
DICTIONARY
  5
A54
330
9BB
100
AcDbDictionary
280
     1
281
     1
  3
ACAD_XREC_ROUNDTRIP
360
A55
  0
DICTIONARY
  5
A4E
330
9B8
100
AcDbDictionary
280
     1
281
     1
  3
ACAD_XREC_ROUNDTRIP
360
A4F
  0
DICTIONARY
  5
A50
330
9B9
100
AcDbDictionary
280
     1
281
     1
  3
ACAD_XREC_ROUNDTRIP
360
A51
  0
DICTIONARY
  5
A3E
330
1AF
100
AcDbDictionary
280
     1
281
     1
  3
ACAD_XREC_ROUNDTRIP
360
A3F
  0
DICTIONARY
  5
A4A
330
9B6
100
AcDbDictionary
280
     1
281
     1
  3
ACAD_XREC_ROUNDTRIP
360
A4B
  0
DICTIONARY
  5
A52
330
9BA
100
AcDbDictionary
280
     1
281
     1
  3
ACAD_XREC_ROUNDTRIP
360
A53
  0
XRECORD
  5
A48
102
{ACAD_REACTORS
330
A47
102
}
330
A47
100
AcDbXrecord
280
     1
102
SHADEPLOT
 70
     0
102
SHADEPLOTRESLEVEL
 70
     2
102
SHADEPLOTCUSTOMDPI
 70
   300
  0
XRECORD
  5
A49
102
{ACAD_REACTORS
330
9F0
102
}
330
9F0
100
AcDbXrecord
280
     1
102
SHADEPLOT
 70
     0
102
SHADEPLOTRESLEVEL
 70
     2
102
SHADEPLOTCUSTOMDPI
 70
   300
  0
XRECORD
  5
9F1
102
{ACAD_REACTORS
330
9F0
102
}
330
9F0
100
AcDbXrecord
280
     1
310
28000000000100006D0000000100080000000000006D0000000000000000000000010000000000003028210000000000C8C8C8000000000000000000000000000000000000000000000000000000000000000000330000006600000099000000CC000000FF00000000330000333300006633000099330000CC330000FF3300
310
0000660000336600006666000099660000CC660000FF66000000990000339900006699000099990000CC990000FF99000000CC000033CC000066CC000099CC0000CCCC0000FFCC000000FF000033FF000066FF000099FF0000CCFF0000FFFF000000003300330033006600330099003300CC003300FF003300003333003333
310
33006633330099333300CC333300FF33330000663300336633006666330099663300CC663300FF66330000993300339933006699330099993300CC993300FF99330000CC330033CC330066CC330099CC3300CCCC3300FFCC330000FF330033FF330066FF330099FF3300CCFF3300FFFF330000006600330066006600660099
310
006600CC006600FF00660000336600333366006633660099336600CC336600FF33660000666600336666006666660099666600CC666600FF66660000996600339966006699660099996600CC996600FF99660000CC660033CC660066CC660099CC6600CCCC6600FFCC660000FF660033FF660066FF660099FF6600CCFF6600
310
FFFF660000009900330099006600990099009900CC009900FF00990000339900333399006633990099339900CC339900FF33990000669900336699006666990099669900CC669900FF66990000999900339999006699990099999900CC999900FF99990000CC990033CC990066CC990099CC9900CCCC9900FFCC990000FF99
310
0033FF990066FF990099FF9900CCFF9900FFFF99000000CC003300CC006600CC009900CC00CC00CC00FF00CC000033CC003333CC006633CC009933CC00CC33CC00FF33CC000066CC003366CC006666CC009966CC00CC66CC00FF66CC000099CC003399CC006699CC009999CC00CC99CC00FF99CC0000CCCC0033CCCC0066CC
310
CC0099CCCC00CCCCCC00FFCCCC0000FFCC0033FFCC0066FFCC0099FFCC00CCFFCC00FFFFCC000000FF003300FF006600FF009900FF00CC00FF00FF00FF000033FF003333FF006633FF009933FF00CC33FF00FF33FF000066FF003366FF006666FF009966FF00CC66FF00FF66FF000099FF003399FF006699FF009999FF00CC
310
99FF00FF99FF0000CCFF0033CCFF0066CCFF0099CCFF00CCCCFF00FFCCFF0000FFFF0033FFFF0066FFFF0099FFFF00CCFFFF00FFFFFF00000000000D0D0D001A1A1A00282828003535350043434300505050005D5D5D006B6B6B00787878008686860093939300A1A1A100AEAEAE00BBBBBB00C9C9C900D6D6D600E4E4E400
310
F1F1F100FFFFFF000000000000000000000000000000000000000000000000000000000000000000000000000000000000000000000000000000000000000000000000000000000000000000000000000000000000000000000000000000000000000000000000000000000000000000000000000000000000000000000000
310
00000000000000000000000000000000000000000000000000000000000000000000000000000000000000000000000000000000000000000000000000000000000000000000000000000000000000000000000000000000000000000000000000000000000000000000000000000000000000000000000000000000000000
310
00000000000000000000000000000000000000000000000000000000000000000000000000000000000000000000000000000000000000000000000000000000000000000000000000000000000000000000000000000000000000000000000000000000000000000000000000000000000000000000000000000000000000
310
00000000000000000000000000000000000000000000000000000000000000000000000000000000000000000000000000000000000000000000000000000000000000000000000000000000000000000000000000000000000000000000000000000000000000000000000000000000000000000000000000000000000000
310
00000000000000000000000000000000000000000000000000000000000000000000000000000000000000000000000000000000000000000000000000000000000000000000000000000000000000000000000000000000000000000000000000000000000000000000000000000000000000000000000000000000000000
310
00000000000000000000000000000000000000000000000000000000000000000000000000000000000000000000000000000000000000000000000000000000000000000000000000000000000000000000000000000000000000000000000000000000000000000000000000000000000000000000000000000000000000
310
00000000000000000000000000000000000000000000000000000000000000000000000000000000000000000000000000000000000000000000000000000000000000000000000000000000000000000000000000000000000000000000000000000000000000000000000000000000000000000000000000000000000000
310
00000000000000000000000000000000000000000000000000000000000000000000000000000000000000000000000000000000000000000000000000000000000000000000000000000000000000000000000000000000000000000000000000000000000000000000000000000000000000000000000000000000000000
310
00000000000000000000000000000000000000000000000000000000000000000000000000000000000000000000000000000000000000000000000000000000000000000000000000000000000000000000000000000000000000000000000000000000000000000000000000000000000000000000000000000000000000
310
00000000000000000000000000000000000000000000000000000000000000000000000000000000000000000000000000000000000000000000000000000000000000000000000000000000000000000000000000000000000000000000000000000000000000000000000000000000000000000000000000000000000000
310
00000000000000000000000000000000000000000000000000000000000000000000000000000000000000000000000000000000000000000000000000000000000000000000000000000000000000000000000000000000000000000000000000000000000000000000000000000000000000000000000000000000000000
310
00000000000000000000000000000000000000000000000000000000000000000000000000000000000000000000000000000000000000000000000000000000000000000000000000000000000000000000000000000000000000000000000000000000000000000000000000000000000000000000000000000000000000
310
00000000000000000000000000000000000000000000000000000000000000000000000000000000000000000000000000000000000000000000000000000000000000000000000000000000000000000000000000000000000000000000000000000000000000000000000000000000000000000000000000000000000000
310
00000000000000000000000000000000000000000000000000000000000000000000000000000000000000000000000000000000000000000000000000000000000000000000000000000000000000000000000000000000000000000000000000000000000000000000000000000000000000000000000000000000000000
310
00000000000000000000000000000000000000000000000000000000000000000000000000000000000000000000000000000000000000000000000000000000000000000000000000000000000000000000000000000000000000000000000000000000000000000000000000000000000000000000000000000000000000
310
00000000000000000000000000000000000000000000000000000000000000000000000000000000000000000000000000000000000000000000000000000000000000000000000000000000000000000000000000000000000000000000000000000000000000000000000000000000000000000000000000000000000000
310
00000000000000000000000000000000000000000000000000000000000000000000000000000000000000000000000000000000000000000000000000000000000000000000000000000000000000000000000000000000000000000000000000000000000000000000000000000000000000000000000000000000000000
310
00000000000000000000000000000000000000000000000000000000000000000000000000000000000000000000000000000000000000000000000000000000000000000000000000000000000000000000000000000000000000000000000000000000000000000000000000000000000000000000000000000000000000
310
00000000000000000000000000000000000000000000000000000000000000000000000000000000000000000000000000000000000000000000000000000000000000000000000000000000000000000000000000000000000000000000000000000000000000000000000000000000000000000000000000000000000000
310
00000000000000000000000000000000000000000000000000000000000000000000000000000000000000000000000000000000000000000000000000000000000000000000000000000000000000000000000000000000000000000000000000000000000000000000000000000000000000000000000000000000000000
310
00000000000000000000000000000000000000000000000000000000000000000000000000000000000000000000000000000000000000000000000000000000000000000000000000000000000000000000000000000000000000000000000000000000000000000000000000000000000000000000000000000000000000
310
00000000000000000000000000000000000000000000000000000000000000000000000000000000000000000000000000000000000000000000000000000000000000000000000000000000000000000000000000000000000000000000000000000000000000000000000000000000000000000000000000000000000000
310
00000000000000000000000000000000000000000000000000000000000000000000000000000000000000000000000000000000000000000000000000000000000000000000000000000000000000000000000000000000000000000000000000000000000000000000000000000000000000000000000000000000000000
310
00000000000000000000000000000000000000000000000000000000000000000000000000000000000000000000000000000000000000000000000000000000000000000000000000000000000000000000000000000000000000000000000000000000000000000000000000000000000000000000000000000000000000
310
00000000000000000000000000000000000000000000000000000000000000000000000000000000000000000000000000000000000000000000000000000000000000000000000000000000000000000000000000000000000000000000000000000000000000000000000000000000000000000000000000000000000000
310
00000000000000000000000000000000000000000000000000000000000000000000000000000000000000000000000000000000000000000000000000000000000000000000000000000000000000000000000000000000000000000000000000000000000000000000000000000000000000000000000000000000000000
310
00000000000000000000000000000000000000000000000000000000000000000000000000000000000000000000000000000000000000000000000000000000000000000000000000000000000000000000000000000000000000000000000000000000000000000000000000000000000000000000000000000000000000
310
00000000000000000000000000000000000000000000000000000000000000000000000000000000000000000000000000000000000000000000000000000000000000000000000000000000000000000000000000000000000000000000000000000000000000000000000000000000000000000000000000000000000000
310
00000000000000000000000000000000000000000000000000000000000000000000000000000000000000000000000000000000000000000000000000000000000000000000000000000000000000000000000000000000000000000000000000000000000000000000000000000000000000000000000000000000000000
310
00000000000000000000000000000000000000000000000000000000000000000000000000000000000000000000000000000000000000000000000000000000000000000000000000000000000000000000000000000000000000000000000000000000000000000000000000000000000000000000000000000000000000
310
00000000000000000000000000000000000000000000000000000000000000000000000000000000000000000000000000000000000000000000000000000000000000000000000000000000000000000000000000000000000000000000000000000000000000000000000000000000000000000000000000000000000000
310
00000000000000000000000000000000000000000000000000000000000000000000000000000000000000000000000000000000000000000000000000000000000000000000000000000000000000000000000000000000000000000000000000000000000000000000000000000000000000000000000000000000000000
310
00000000000000000000000000000000000000000000000000000000000000000000000000000000000000000000000000000000000000000000000000000000000000000000000000000000000000000000000000000000000000000000000000000000000000000000000000000000000000000000000000000000000000
310
00000000000000000000000000000000000000000000000000000000000000000000000000000000000000000000000000000000000000000000000000000000000000000000000000000000000000000000000000000000000000000000000000000000000000000000000000000000000000000000000000000000000000
310
00000000000000000000000000000000000000000000000000000000000000000000000000000000000000000000000000000000000000000000000000000000000000000000000000000000000000000000000000000000000000000000000000000000000000000000000000000000000000000000000000000000000000
310
00000000000000000000000000000000000000000000000000000000000000000000000000000000000000000000000000000000000000000000000000000000000000000000000000000000000000000000000000000000000000000000000000000000000000000000000000000000000000000000000000000000000000
310
00000000000000000000000000000000000000000000000000000000000000000000000000000000000000000000000000000000000000000000000000000000000000000000000000000000000000000000000000000000000000000000000000000000000000000000000000000000000000000000000000000000000000
310
00000000000000000000000000000000000000000000000000000000000000000000000000000000000000000000000000000000000000000000000000000000000000000000000000000000000000000000000000000000000000000000000000000000000000000000000000000000000000000000000000000000000000
310
00000000000000000000000000000000000000000000000000000000000000000000000000000000000000000000000000000000000000000000000000000000000000000000000000000000000000000000000000000000000000000000000000000000000000000000000000000000000000000000000000000000000000
310
00000000000000000000000000000000000000000000000000000000000000000000000000000000000000000000000000000000000000000000000000000000000000000000000000000000000000000000000000000000000000000000000000000000000000000000000000000000000000000000000000000000000000
310
00000000000000000000000000000000000000000000000000000000000000000000000000000000000000000000000000000000000000000000000000000000000000000000000000000000000000000000000000000000000000000000000000000000000000000000000000000000000000000000000000000000000000
310
00000000000000000000000000000000000000000000000000000000000000000000000000000000000000000000000000000000000000000000000000000000000000000000000000000000000000000000000000000000000000000000000000000000000000000000000000000000000000000000000000000000000000
310
00000000000000000000000000000000000000000000000000000000000000000000000000000000000000000000000000000000000000000000000000000000000000000000000000000000000000000000000000000000000000000000000000000000000000000000000000000000000000000000000000000000000000
310
00000000000000000000000000000000000000000000000000000000000000000000000000000000000000000000000000000000000000000000000000000000000000000000000000000000000000000000000000000000000000000000000000000000000000000000000000000000000000000000000000000000000000
310
00000000000000000000000000000000000000000000000000000000000000000000000000000000000000000000000000000000000000000000000000000000000000000000000000000000000000000000000000000000000000000000000000000000000000000000000000000000000000000000000000000000000000
310
00000000000000000000000000000000000000000000000000000000000000000000000000000000000000000000000000000000000000000000000000000000000000000000000000000000000000000000000000000000000000000000000000000000000000000000000000000000000000000000000000000000000000
310
00000000000000000000000000000000000000000000000000000000000000000000000000000000000000000000000000000000000000000000000000000000000000000000000000000000000000000000000000000000000000000000000000000000000000000000000000000000000000000000000000000000000000
310
00000000000000000000000000000000000000000000000000000000000000000000000000000000000000000000000000000000000000000000000000000000000000000000000000000000000000000000000000000000000000000000000000000000000000000000000000000000000000000000000000000000000000
310
00000000000000000000000000000000000000000000000000000000000000000000000000000000000000000000000000000000000000000000000000000000000000000000000000000000000000000000000000000000000000000000000000000000000000000000000000000000000000000000000000000000000000
310
00000000000000000000000000000000000000000000000000000000000000000000000000000000000000000000000000000000000000000000000000000000000000000000000000000000000000000000000000000000000000000000000000000000000000000000000000000000000000000000000000000000000000
310
00000000000000000000000000000000000000000000000000000000000000000000000000000000000000000000000000000000000000000000000000000000000000000000000000000000000000000000000000000000000000000000000000000000000000000000000000000000000000000000000000000000000000
310
00000000000000000000000000000000000000000000000000000000000000000000000000000000000000000000000000000000000000000000000000000000000000000000000000000000000000000000000000000000000000000000000000000000000000000000000000000000000000000000000000000000000000
310
00000000000000000000000000000000000000000000000000000000000000000000000000000000000000000000000000000000000000000000000000000000000000000000000000000000000000000000000000000000000000000000000000000000000000000000000000000000000000000000000000000000000000
310
00000000000000000000000000000000000000000000000000000000000000000000000000000000000000000000000000000000000000000000000000000000000000000000000000000000000000000000000000000000000000000000000000000000000000000000000000000000000000000000000000000000000000
310
00000000000000000000000000000000000000000000000000000000000000000000000000000000000000000000000000000000000000000000000000000000000000000000000000000000000000000000000000000000000000000000000000000000000000000000000000000000000000000000000000000000000000
310
0000000000F5F5F5F5F5F5F5F5F5F5F5F5F5F5F5F5F5F5F5F5F5F5F5F5F5F5F5F5000000000000000000000000000000000000000000000000000000000000000000000000000000F5F5F5F5F5F5F5F5F5F5F5F5F5F5F5F5F5F5F5F5F5F5F5F5F5F5F5F5F5F5F5F5F5F5F5F5F5F5F5F5F5F5F5F5F5F5F5F5F5F5F5F5F5F5F5
310
F5F5F5F5F5F5F5F5F5F5F5000000000000000000000000000000000000000000000000000000000000000000F5F5F5F5F5F50000000000000000000000000000000000000000000000000000000000000000000000000000000000000000000000000000000000000000000000000000000000000000000000000000000000
310
00000000000000F5F50000000000F50000000000000000000000000000F500000000F5000000000000000000000000000000000000000000000000000000000000000000000000000000F5F500000000000000000000000000F5F5F5F5F5F5F5F5F5F5F5F5F5F5F5F5F5F5F5F5F5F5F5F5F5F5F5F5F5F5F5F5F5F5F5F5F500
310
000000000000000000000000F5000000000000000000000000000000000000000000000000000000000000000000F500000000F5000000000000000000000000000000000000000000000000000000000000000000000000000000000000000000000000000000000000000000000000000000000000000000000000000000
310
00000000000000000000F50000000000F50000000000000000000000000000F500000000F5000000000000000000000000000000000000000000000000000000000000000000000000000000F500000000000000000000000000F5000000F5F5F5F5F5F5F5F500000000F5F5F5F5F5F5F500000000F5F5F5F5F5F5F5F50000
310
00F5000000000000000000000000F5000000000000000000000000000000000000000000000000000000000000000000F500000000F500000000000000000000000000000000000000000000000000000000000000000000000000000000000000000000000000000000000000000000000000000000000000000000000000
310
000000000000000000000000F50000000000F500000000F5F5F5F5F5F5F5F5F5F5F500000000F5F50000000000000000000000000000000000000000000000000000000000000000000000000000F500000000000000000000000000F5000000F5F5F5F5F5F5F5F500000000F5F5F5F5F5F5F500000000F5F5F5F5F5F5F5F5
310
000000F5F50000000000000000000000F50000000000000000000000000000000000000000000000000000000000000000F5F500000000F5F500000000000000000000000000000000000000000000000000000000000000000000000000000000000000000000000000000000000000000000000000000000000000000000
310
0000000000000000000000000000F50000000000F50000000000F500000000000000F5F500000000F5F50000000000000000000000000000000000000000000000000000000000000000000000000000F5000000000000000000000000F5F5000000F5000000000000F500000000F50000000000F500000000F50000000000
310
00F5000000F5F50000000000000000000000F50000000000000000000000000000000000000000000000000000000000000000F5F500000000F5F50000000000000000000000000000000000000000000000000000000000000000000000000000000000000000000000000000000000000000000000000000000000000000
310
00000000000000000000000000000000F50000000000F50000000000F500000000000000F5F500000000F5F50000000000000000000000000000000000000000000000000000000000000000000000000000F5000000000000000000000000F5F5000000F5000000000000F500000000F50000000000F500000000F5000000
310
000000F5000000F5F50000000000000000000000F50000000000000000000000000000000000000000000000000000000000000000F5F500000000F5F5000000000000000000000000000000000000000000000000000000000000000000000000000000000000000000000000000000000000000000000000000000000000
310
000000000000000000000000000000000000F50000000000F50000000000F500000000000000F5F500000000F5F50000000000000000000000000000000000000000000000000000000000000000000000000000F5000000000000000000000000F5F5000000F5000000000000F500000000F50000000000F500000000F500
310
0000000000F5000000F5F50000000000000000000000F50000000000000000000000000000000000000000000000000000000000000000F5F500000000F5F500000000000000000000000000000000000000000000000000000000000000000000000000000000000000000000000000000000000000000000000000000000
310
0000000000000000000000000000000000000000F50000000000F50000000000F500000000000000F5F500000000F5F50000000000000000000000000000000000000000000000000000000000000000000000000000F5000000000000000000000000F5F5000000F5F5F5F5F5F5F5F500000000F5F5F5F5F5F5F500000000
310
F5F5F5F5F5F5F5F5000000F5F50000000000000000000000F50000000000000000000000000000000000000000000000000000000000000000F5F500000000F5F50000000000000000000000000000000000000000000000000000000000000000000000000000000000000000000000000000000000000000000000000000
310
00000000000000000000000000000000000000000000F50000000000F50000000000F500000000000000F5F500000000F5F50000000000000000000000000000000000000000000000000000000000000000000000000000F5000000000000000000000000F5F5000000F5F5F5F5F5F5F5F500000000F5F5F5F5F5F5F50000
310
0000F5F5F5F5F5F5F5F5000000F5F50000000000000000000000F50000000000000000000000000000000000000000000000000000000000000000F5F500000000F5F5000000000000000000000000000000000000000000000000000000000000000000000000000000000000000000000000000000000000000000000000
310
000000000000000000000000000000000000000000000000F50000000000F50000000000F500000000000000F5F500000000F5F500000000000000000000000000000000000000000000000000000000000000000000000000F5F5000000000000000000000000F5F5000000F5F5F50000F5F5F500000000F5F5000000F5F5
310
00000000F5F5F50000F5F5F5000000F5F50000000000000000000000F50000000000000000000000000000000000000000000000000000000000000000F5F500000000F5F500000000000000000000000000000000000000000000000000000000000000000000000000000000000000000000000000000000000000000000
310
0000000000000000000000000000000000000000000000000000F50000000000F50000000000F500000000000000F5F500000000F5F500000000000000000000000000000000000000000000000000000000000000000000000000F5F5000000000000000000000000F5F5000000F5F5F50000F5F5F500000000F5F5000000
310
F5F500000000F5F5F50000F5F5F5000000F5F50000000000000000000000F50000000000000000000000000000000000000000000000000000000000000000F5F500000000F5F50000000000000000000000000000000000000000000000000000000000000000000000000000000000000000000000000000000000000000
310
00000000000000000000000000000000000000000000000000000000F50000000000F50000000000F500000000000000F5F5F5F5F5F5F5F5F5F5F5F5F5F5F5F5F5F5F5F5F5F5F5F5F5F5F5000000000000000000000000000000000000F5F5000000000000000000000000F5F5000000F5F5F5F5F5F5F5F500000000F5F5F5
310
F5F5F5F500000000F5F5F5F5F5F5F5F5000000F5F50000000000000000000000F50000000000000000000000000000000000000000000000000000000000000000F5F5F5F5F5F5F5F5F5F5F5F5F5F5F5F5F5F5F5F5F50000000000000000000000000000000000000000000000000000000000000000000000000000000000
310
000000000000000000000000000000000000000000000000000000000000F50000000000F50000000000F500000000000000F5F5F50000F50000000000000000000000000000F50000000000F500000000000000000000000000000000000000F5000000000000000000000000F5F5F5F5F5F5F5F50000F5F5F5F5F5F5F5F5
310
F5000000F5F5F5F5F5F5F5F5F50000F5F5F5F5F5F5F5F50000000000000000000000F50000000000000000000000000000000000000000000000000000000000000000F5F5F50000F5F500000000000000000000000000F5F50000000000000000000000000000000000000000000000000000000000000000000000000000
310
0000000000000000000000000000000000000000000000000000000000000000F50000000000F50000000000F500000000000000F5F5F50000F50000000000000000000000000000F50000000000F500000000000000000000000000000000000000F5000000000000000000000000F5F5F50000F5F5F50000F5F5F5000000
310
00F5F5000000F5F500000000F5F5F50000F5F5F50000F5F5F50000000000000000000000F50000000000000000000000000000000000000000000000000000000000000000F5F5F50000F5000000000000000000000000000000F5000000000000000000000000000000000000000000000000000000000000000000000000
310
00000000000000000000000000000000000000000000000000000000000000000000F50000000000F50000000000F500000000000000F5F5000000000000000000000000F5F5F5F5F500F50000000000F500000000000000000000000000000000000000F50000000000000000000000F5F5F5F50000F5F5F5F5F5F5F5F500
310
000000F5F5F5F5F5F5F500000000F5F5F5F5F5F5F5F50000F5F5F5F500000000000000000000F50000000000000000000000000000000000000000000000000000000000000000F5F50000000000000000F5000000F5F5F5F5F50000F500000000000000000000000000000000000000000000000000000000000000000000
310
000000000000000000000000000000000000000000000000000000000000000000000000F50000000000F50000000000F500000000000000F5F500F5F50000F5F5F5F5F5F5F5F5F5F5F5F500F50000000000F500000000000000000000000000000000000000F50000000000000000000000F5F5F5F5F500F5F5F50000F5F5
310
F500000000F5F5000000F5F500000000F5F5F50000F5F5F500F5F5F5F5F500000000000000000000F50000000000000000000000000000000000000000000000000000000000000000F5F500F5F5000000F5F500F5F500F5F5F5F5F50000F50000000000000000000000000000000000000000000000000000000000000000
310
0000000000000000000000000000000000000000000000000000000000000000000000000000F50000000000F50000000000F500000000000000F5F500F5F50000F50000F5000000F5F5F5F5F500F50000000000F500000000000000000000000000000000000000F500000000000000000000F5F5F5F5F5F500F5F5F50000
310
F5F5F500000000F5F5000000F5F500000000F5F5F50000F5F5F500F5F5F5F5F5F5000000000000000000F50000000000000000000000000000000000000000000000000000000000000000F5F500F5F50000F50000000000F5F5F5F5F5F50000F5000000000000000000000000000000000000000000000000000000000000
310
00000000000000000000000000000000000000000000000000000000000000000000000000000000F50000000000F50000000000F500000000000000F5F500000000F500F5F500F5F5F5F5F5F5F5F500F50000000000F500000000000000000000000000000000000000F500000000000000000000F5F5F5F5F5F500F5F5F5
310
0000F5F5F500000000F5F5000000F5F500000000F5F5F50000F5F5F500F5F5F5F5F5F5000000000000000000F50000000000000000000000000000000000000000000000000000000000000000F5F500000000F500F5F5F5F5F5F5F5F5F5F5F5F5F5F5F5F5F5F5F5F5F5F5F5F5F5F5F5F5F5F5F50000000000000000000000
310
000000000000000000000000000000000000000000000000000000000000000000000000000000000000F500000000F5F500000000F5F500000000000000F5F5F500F5F5F500F5F5F50000F50000F5F5F500F50000000000F500000000000000000000000000000000000000F500000000000000000000F5F5F5F5F5F500F5
310
F5F5F5F5F5F5F500000000F5F5F5F5F5F5F500000000F5F5F5F5F5F5F5F500F5F5F5F5F5F50000000000000000F5F50000000000000000000000000000000000000000000000000000000000000000F5F5F500F5F5F5F500F5F50000000000F5F5F500000000000000000000000000000000000000F5000000000000000000
310
0000000000000000000000000000000000000000000000000000000000000000000000000000000000000000F500000000F5F500000000F5F500000000000000F5F5F5F5F5F50000F5F5F5F5F5F50000F5F5F500F500000000F5F500000000000000000000000000000000000000F5F50000000000000000F5F5F5F5F5F5F5
310
00F5F5F50000F5F5F500000000F5F5000000F5F500000000F5F5F50000F5F5F500F5F5F5F5F5F5F500000000000000F5F50000000000000000000000000000000000000000000000000000000000000000F5F5F5F5F5F500F50000F5F5F50000F5F500F5000000F5F50000000000000000000000000000F500000000000000
310
00000000000000000000000000000000000000000000000000000000000000000000000000000000000000000000F500000000F5F500000000F5F500000000000000F5F5F5F5F5F50000F5F5F5F5F5F50000F5F5F500F500000000F5F500000000000000000000000000000000000000F5F5F5F5F5F5F5F5F5F5F5F5F5F5F5
310
F5F500F5F5F50000F5F5F500000000F5F5000000F5F500000000F5F5F50000F5F5F500F5F5F5F5F5F5F500000000000000F5F50000000000000000000000000000000000000000000000000000000000000000F5F5F5F5F5F500F50000F5F5F5F500F5F500F5000000F5F50000000000000000000000000000F50000000000
310
000000000000000000000000000000000000000000000000000000000000000000000000000000000000000000000000F500000000F5F500000000F5F500000000000000F5F5F5F5F5F50000F5F5F50000F50000F5F5F500F500000000F5F500000000000000000000000000000000000000F5F50000000000000000F5F5F5
310
F5F5F5F500F5F5F5F5F5F5F5F500000000F5F5F5F5F5F5F500000000F5F5F5F5F5F5F5F500F5F5F5F5F5F5F500000000000000F5F50000000000000000000000000000000000000000000000000000000000000000F5F5F5F5F5F500F500F5F500000000F5F500F500000000000000000000000000000000000000F5000000
310
000000000000000000000000000000000000000000000000000000000000000000000000000000000000000000000000F5F5F50000000000F50000000000F500000000000000F5F5F50000F5F500F5F5F50000F50000F5F5F500F50000000000F500000000000000000000000000000000000000F500000000000000000000
310
F5F5F5F5F5F500F5F5F50000F5F5F500000000F5F5000000F5F500000000F5F5F50000F5F5F500F5F5F5F5F5F5000000000000000000F50000000000000000000000000000000000000000000000000000000000000000F5F5F50000F5F500F5F5F5F5F5F5F5F5F5F5F5F5F5F5F5F5F5F5F5F5F5F5F5F5F5F5F5F5F5F5F500
310
0000000000000000000000000000000000000000000000000000000000000000000000000000000000000000000000000000F5F5F50000000000F50000000000F500000000000000F5F500F5F500F500F500000000F500F5F5F5F500F50000000000F500000000000000000000000000000000000000F50000000000000000
310
0000F5F5F5F5F5F500F5F5F50000F5F5F500000000F5F5000000F5F500000000F5F5F50000F5F5F500F5F5F5F5F5F5000000000000000000F50000000000000000000000000000000000000000000000000000000000000000F5F500F5F500F50000000000000000F5F5F5F50000F500000000000000000000000000000000
310
F5000000000000000000000000000000000000000000000000000000000000000000000000000000000000000000000000000000F5F5F50000000000F50000000000F500000000000000F5F500F5F50000F5F500000000F5F5F5F5F5F500F50000000000F500000000000000000000000000000000000000F5000000000000
310
F5F5F500F5F5F5F5F5F500F5F5F50000F5F5F500000000F5F5000000F5F500000000F5F5F50000F5F5F500F5F5F5F5F5F500F5F5F50000000000F50000000000000000000000000000000000000000000000000000000000000000F5F500F5F50000F5F50000000000F5F5F5F5F50000F50000000000000000000000000000
310
0000F5000000000000000000000000000000000000000000000000000000000000000000000000000000000000000000000000000000F5F5F50000000000F50000000000F500000000000000F5F500F5000000F5F5F5F5F5F5F5F5F5F5F5F500F50000000000F500000000000000000000000000000000000000F500000000
310
0000F5F5F5F5F5F5F5F5F5F500F5F5F5F5F5F5F5F500000000F5F5F5F5F5F5F500000000F5F5F5F5F5F5F5F500F5F5F5F5F5F5F5F5F5F50000000000F50000000000000000000000000000000000000000000000000000000000000000F5F500F50000000000F5F5F5F5F5F5F5F5F5F50000F5000000000000000000000000
310
00000000F50000000000000000000000000000000000000000000000000000000000000000000000000000000000000000000000000000000000F50000000000F50000000000F500000000000000F5F50000000000F5000000000000F5F5F5F5F500F50000000000F500000000000000000000000000000000000000F50000
310
00000000F500F5F5F5F5F5F5F50000F5F5F50000F5F5F500000000F5F5000000F5F500000000F5F5F50000F5F5F50000F5F5F5F5F500F500F50000000000F50000000000000000000000000000000000000000000000000000000000000000F5F5000000000000000000000000F5F5F5F5F50000F500000000000000000000
310
000000000000F50000000000000000000000000000000000000000000000000000000000000000000000000000000000000000000000000000000000F50000000000F50000000000F500000000000000F5F5F50000F500F5F5F5F5F5F5F5F50000000000F50000000000F500000000000000000000000000000000000000F5
310
000000000000F5F5F5F5F5F5F5F5F50000F5F5F50000F5F5F500000000F5F5000000F5F500000000F5F5F50000F5F5F50000F5F5F5F5F5F5F5F5F50000000000F50000000000000000000000000000000000000000000000000000000000000000F5F5F50000F5F50000000000000000000000000000F50000000000000000
310
0000000000000000F50000000000000000000000000000000000000000000000000000000000000000000000000000000000000000000000000000000000F50000000000F50000000000F500000000000000F5F5F5F5F5F5F5F5F5F5F5F5F5F5F5F5F5F5F5F5F5F5F5F5F5F5F5000000000000000000000000000000000000
310
00F5000000000000F5F5F500F5F5F5F5F5F5F5F5F5F5F5F5F5F5F5F5F5F5F5F5F5F5F5F5F5F5F5F5F5F5F5F5F5F5F5F5F5F5F5F5F5F5F5F5F500F5F5F50000000000F50000000000000000000000000000000000000000000000000000000000000000F5F5F5F5F5F5F5F5F5F5F5F5F5F5F5F5F5F5F5F5F5F5000000000000
310
00000000000000000000F50000000000000000000000000000000000000000000000000000000000000000000000000000000000000000000000000000000000F50000000000F50000000000F500000000000000F5F500000000F5F5F500000000F5000000000000F500000000000000000000000000000000000000000000
310
000000F5000000000000F5000000F5F5F5F5000000F5F5F50000F5F5F500000000F5F5000000F5F500000000F5F5F50000F5F5F5000000F5F5F5F5000000F50000000000F50000000000000000000000000000000000000000000000000000000000000000F5F500000000F5F500000000000000000000000000F500000000
310
000000000000000000000000F50000000000000000000000000000000000000000000000000000000000000000000000000000000000000000000000000000000000F50000000000F50000000000F500000000000000F5F500000000F5F5F500000000F5000000000000F50000000000000000000000000000000000000000
310
0000000000F5000000000000F5000000F5F5F5F5000000F5F5F50000F5F5F500000000F5F5000000F5F500000000F5F5F50000F5F5F5000000F5F5F5F5000000F50000000000F50000000000000000000000000000000000000000000000000000000000000000F5F500000000F5F500000000000000000000000000F50000
310
0000000000000000000000000000F50000000000000000000000000000000000000000000000000000000000000000000000000000000000000000000000000000000000F50000000000F50000000000F500000000000000F5F500000000F5F5F500000000F5000000000000F5000000000000000000000000000000000000
310
00000000000000F5000000000000F5000000F5F5F5F5000000F5F5F50000F5F5F500000000F5F5000000F5F500000000F5F5F50000F5F5F5000000F5F5F5F5000000F50000000000F50000000000000000000000000000000000000000000000000000000000000000F5F500000000F5F500000000000000000000000000F5
310
00000000000000000000000000000000F50000000000000000000000000000000000000000000000000000000000000000000000000000000000000000000000000000000000F50000000000F50000000000F500000000000000F5F500000000F5F5F500000000F5000000000000F500000000000000000000000000000000
310
0000000000000000F5F5000000000000F5000000F5F5F5F5000000F5F5F5F5F5F5F5F500000000F5F5F5F5F5F5F500000000F5F5F5F5F5F5F5F5000000F5F5F5F5000000F50000000000F50000000000000000000000000000000000000000000000000000000000000000F5F500000000F5F5000000000000000000000000
310
00F500000000000000000000000000000000F50000000000000000000000000000000000000000000000000000000000000000000000000000000000000000000000000000000000F50000000000F50000000000F500000000000000F5F500000000F5F5F500000000F5000000000000F50000000000000000000000000000
310
00000000000000000000F5F5000000000000F5000000F5F5F5F5000000F5F5F50000F5F5F500000000F5F5000000F5F500000000F5F5F50000F5F5F5000000F5F5F5F5000000F50000000000F50000000000000000000000000000000000000000000000000000000000000000F5F500000000F5F500000000000000000000
310
000000F500000000000000000000000000000000F50000000000000000000000000000000000000000000000000000000000000000000000000000000000000000000000000000000000F50000000000F50000000000F500000000000000F5F500000000F5F5F500000000F5000000000000F5000000000000000000000000
310
000000000000000000000000F5F5000000000000F5000000F5F5F5F5000000F5F5F50000F5F5F500000000F5F5000000F5F500000000F5F5F50000F5F5F5000000F5F5F5F5000000F50000000000F50000000000000000000000000000000000000000000000000000000000000000F5F500000000F5F50000000000000000
310
0000000000F500000000000000000000000000000000F50000000000000000000000000000000000000000000000000000000000000000000000000000000000000000000000000000000000F50000000000F50000000000F500000000000000F5F500000000F5F5F500000000F5000000000000F500000000000000000000
310
0000000000000000000000000000F5F5000000000000F5000000F5F5F5F5000000F5F5F5F5F5F5F5F500000000F5F5F5F5F5F5F500000000F5F5F5F5F5F5F5F5000000F5F5F5F5000000F50000000000F50000000000000000000000000000000000000000000000000000000000000000F5F500000000F5F5000000000000
310
00000000000000F500000000000000000000000000000000F50000000000000000000000000000000000000000000000000000000000000000000000000000000000000000000000000000000000F50000000000F50000000000F500000000000000F5F500000000F5F5F500000000F5000000000000F50000000000000000
310
0000000000000000000000000000000000F5000000000000F5000000F5F5F5F5000000F5F5F5F5F5F5F5F500000000F5F5F5F5F5F5F500000000F5F5F5F5F5F5F5F5000000F5F5F5F5000000F50000000000F50000000000000000000000000000000000000000000000000000000000000000F5F500000000F5F500000000
310
000000000000000000F500000000000000000000000000000000F50000000000000000000000000000000000000000000000000000000000000000000000000000000000000000000000000000000000F50000000000F500000000F5F5F5F5F5F5F5F5F5F5F500000000F5F5F500000000F5000000000000F5000000000000
310
00000000000000000000000000000000000000F5000000000000F5000000F5F500F5000000F5F5F5F5F5F5F5F500000000F5F5F5F5F5F5F500000000F5F5F5F5F5F5F5F5000000F5F5F5F5000000F50000000000F50000000000000000000000000000000000000000000000000000000000000000F5F500000000F5F50000
310
0000000000000000000000F500000000000000000000000000000000F50000000000000000000000000000000000000000000000000000000000000000000000000000000000000000000000000000000000F50000000000F500000000000000000000000000F5F500000000F500F500000000F5000000000000F500000000
310
000000000000000000000000000000000000000000F5000000000000F5000000F5F500F5F50000F5F5F5F5F5F5F5F500000000F5F5F5F5F5F5F500000000F5F5F5F5F5F5F5F50000F5F500F5F5000000F50000000000F50000000000000000000000000000000000000000000000000000000000000000F5F500000000F500
310
00000000000000000000000000F500000000000000000000000000000000F50000000000000000000000000000000000000000000000000000000000000000000000000000000000000000000000000000000000F50000000000F5F5F5F5F5F5F5F5F5F5F5F5F5F5F5F5F5F5F5F5F500F500000000F5000000000000F50000
310
0000000000000000000000000000000000000000000000F5000000000000F5000000F5F50000F5F5F5F5F5F5F5F5F5F5F5F5F5F5F5F5F5F5F5F5F5F5F5F5F5F5F5F5F5F5F5F5F5F5F5F5F5F5F5F5F5F5F5F5F5F5F5F5F5F5F50000000000000000000000000000000000000000000000000000000000000000F5F5F5F5F5F5
310
F50000000000000000000000000000F500000000000000000000000000000000F50000000000000000000000000000000000000000000000000000000000000000000000000000000000000000000000000000000000F500000000000000000000000000000000000000F500F5F5F5000000F500000000F5000000000000F5
310
00000000000000000000000000000000000000000000000000F5000000000000F5000000F5F500000000000000F5F5F5000000000000000000F5F5F5000000000000000000F5F5F500000000000000F5F5000000F50000000000000000000000000000000000000000000000000000000000000000000000000000F500F5F5
310
F5F5000000000000000000000000000000F500000000000000000000000000000000F50000000000000000000000000000000000000000000000000000000000000000000000000000000000000000000000000000000000F500000000000000000000000000000000000000F500000000000000F500000000F50000000000
310
00F500000000000000000000000000000000000000000000000000F5000000000000F5000000F5F50000000000000000000000000000000000000000000000000000000000000000000000000000000000F5F5000000F50000000000000000000000000000000000000000000000000000000000000000000000000000F500
310
00000000000000000000000000000000000000F500000000000000000000000000000000F50000000000000000000000000000000000000000000000000000000000000000000000000000000000000000000000000000000000F500000000000000000000000000000000000000F500000000000000F500000000F5000000
310
000000F500000000000000000000000000000000000000000000000000F5000000000000F5000000F5F50000000000000000000000000000000000000000000000000000000000000000000000000000000000F5F5000000F50000000000000000000000000000000000000000000000000000000000000000000000000000
310
F50000000000000000000000000000000000000000F500000000000000000000000000000000F50000000000000000000000000000000000000000000000000000000000000000000000000000000000000000000000000000000000F500000000000000000000000000000000000000F500000000000000F500000000F500
310
0000000000F500000000000000000000000000000000000000000000000000F5000000000000F5000000F5F50000000000000000000000000000000000000000000000000000000000000000000000000000000000F5F5000000F5000000000000000000000000000000000000000000000000000000000000000000000000
310
0000F50000000000000000000000000000000000000000F500000000000000000000000000000000F50000000000000000000000000000000000000000000000000000000000000000000000000000000000000000000000000000000000F500000000000000000000000000000000000000F500000000000000F500000000
310
F5000000000000F500000000000000000000000000000000000000000000000000F5000000000000F5000000F5F50000000000000000000000000000000000000000000000000000000000000000000000000000000000F5F5000000F500000000000000000000000000000000000000000000000000000000000000000000
310
00000000F50000000000000000000000000000000000000000F500000000000000000000000000000000F50000000000000000000000000000000000000000000000000000000000000000000000000000000000000000000000000000000000F500000000000000000000000000000000000000F500000000000000F50000
310
0000F5000000000000F500000000000000000000000000000000000000000000000000F5000000000000F5000000F5F500000000000000000000000000000000000000F5F5F500000000000000000000000000000000000000F5F5000000F50000000000000000000000000000000000000000000000000000000000000000
310
000000000000F50000000000000000000000000000000000000000F500000000000000000000000000000000F500000000000000000000000000000000000000000000000000000000000000000000000000000000000000000000000000000000F5F500000000000000000000000000000000000000F500000000000000F5
310
00000000F5000000000000F500000000000000000000000000000000000000000000000000F5F50000000000F5000000F5F5F5F5F5F5F5F5F5F5F5F5F5F5F5F5F5F5F5F5F5F5F5F5F5F5F5F5F5F5F5F5F5F5F5F5F5F5F5F5F5F5F5F5F5000000F5000000000000000000000000000000000000000000000000000000000000
310
0000000000000000F50000000000000000000000000000000000000000F500000000000000000000000000000000F500000000000000000000000000000000000000000000000000000000000000000000000000000000000000000000000000000000F5F5F5F5F5F5F5F5F5F5F5F5F5F5F5F5F5F5F5F5F5F5F5F5F5F5F5F5
310
F5F5F5F5F5F5F5000000000000F500000000000000000000000000000000000000000000000000F5F5F5F5F5F5F5F5F5F5F5F5F5F5F5F5F5F5F5F5F5F5F5F5F5F5F5F5F5F5F5F5F5F5F5F5F5F5F5F5F5F5F5F5F5F5F5F5F5F5F5F5F5F500F5000000F500000000000000000000000000000000000000000000000000000000
310
00000000000000000000F50000000000000000000000000000000000000000F500000000000000000000000000000000F500000000000000000000000000000000000000000000000000000000000000000000000000000000000000000000000000000000000000000000000000000000000000000000000000F500000000
310
00000000F5F500F500000000000000F50000000000000000000000000000000000000000000000000000000000000000F5000000F500000000000000000000000000000000000000F5F5F500F500000000000000000000000000000000000000F5000000F50000000000000000000000000000000000000000000000000000
310
000000000000000000000000F5F5F5F5F5F5F5F5F5F5F5F5F5F5F5F5F5F5F5F5F5F500000000000000000000000000000000F500000000000000000000000000000000000000000000000000000000000000000000000000000000000000000000000000000000000000000000000000000000000000000000000000F50000
310
0000000000F5F5F5F5F5F5000000000000F50000000000000000000000000000000000000000000000000000000000000000F5000000F5000000000000000000000000000000000000F5F5F5F5F5F5F5000000000000000000000000000000000000F5000000F5000000000000000000000000000000000000000000000000
310
0000000000000000000000000000F50000000000000000F5F5F5000000000000000000F500000000000000000000000000000000F500000000000000000000000000000000000000000000000000000000000000000000000000000000000000000000000000000000000000000000000000000000000000000000000000F5
310
00000000000000000000F50000000000000000F50000000000000000000000000000000000000000000000000000000000000000F5000000F5000000000000000000000000000000000000000000F5F50000000000000000000000000000000000000000F5000000F500000000000000000000000000000000000000000000
310
00000000000000000000000000000000F500000000000000000000000000000000000000000000000000000000000000000000000000F5000000000000000000000000000000000000000000000000000000000000000000000000000000000000000000000000000000000000000000000000000000000000000000000000
310
00F500000000000000000000000000000000000000F50000000000000000000000000000000000000000000000000000000000000000F5000000F500000000000000000000000000000000000000000000000000000000000000000000000000000000000000F5000000F50000000000000000000000000000000000000000
310
000000000000000000000000000000000000F500000000000000000000000000000000000000000000000000000000000000000000000000F500000000000000000000000000000000000000000000000000000000000000000000000000000000000000000000000000000000000000000000000000000000000000000000
310
000000F500000000000000000000000000000000000000F50000000000000000000000000000000000000000000000000000000000000000F5000000F500000000000000000000000000000000000000000000000000000000000000000000000000000000000000F5000000F5000000000000000000000000000000000000
310
0000000000000000000000000000000000000000F500000000000000000000000000000000000000000000000000000000000000000000000000F50000000000000000000000000000000000000000000000000000000000000000000000000000000000000000000000000000000000000000000000000000000000000000
310
0000000000F5F5F5F5F5F5F5F5F5F5F5F5F5F5F5F5F5F5F5F5F50000000000000000000000000000000000000000000000000000000000000000F5000000F5F5F5F5F5F5F5F5F5F5F5F5F5F5F5F5F5F5F5F5F5F5F5F5F5F5F5F5F5F5F5F5F5F5F5F5F5F5F5F5F5F5F5F5F5000000F500000000000000000000000000000000
310
00000000000000000000000000000000000000000000F500000000000000000000000000000000000000000000000000000000000000000000000000F5000000000000000000000000000000000000000000000000000000000000000000000000000000000000000000000000000000000000000000000000000000000000
310
00000000000000000000000000000000F5F5F50000000000000000000000000000000000000000000000000000000000000000000000000000000000F5000000F5F5000000000000000000000000000000000000F5F5F5F5F5000000000000000000000000000000000000F5F5000000F50000000000000000000000000000
310
000000000000000000000000000000000000000000000000F500000000000000000000000000000000000000000000000000000000000000000000000000F500000000000000000000000000000000000000000000000000000000000000000000000000000000000000000000000000000000000000000000000000000000
310
0000000000000000000000000000000000000000000000000000000000000000000000000000000000000000000000000000000000000000000000000000F5000000000000000000000000000000000000000000000000F5F5F5000000000000000000000000000000000000000000000000F5000000000000000000000000
310
0000000000000000000000000000000000000000000000000000F5F5F5F5F5F5F5F5F5F5F5F5F5F5F5F5F5F5F5F5F5F5F5F5F5F5F5F5F5F5F5F5F5F5F5F5F5F5F50000000000000000000000000000000000000000000000000000000000000000000000000000000000000000000000000000000000000000000000000000
310
00000000000000000000000000000000000000000000000000000000000000000000000000000000000000000000000000000000000000000000000000000000F5000000000000000000000000000000000000000000000000000000000000000000000000000000000000000000000000000000F500000000000000000000
310
00000000000000000000000000000000000000000000000000000000F5F500000000000000000000000000000000F5F5F500000000000000000000000000000000F5F5000000000000000000000000000000000000000000000000000000000000000000000000000000000000000000000000000000000000000000000000
310
000000000000000000000000000000000000000000000000000000000000000000000000000000000000000000000000000000000000000000000000000000000000F5000000000000000000000000000000000000000000000000000000000000000000000000000000000000000000000000000000F50000000000000000
310
000000000000000000000000000000000000000000000000000000000000000000000000000000000000000000000000F5F5F500000000000000000000000000000000000000000000000000000000000000000000000000000000000000000000000000000000000000000000000000000000000000000000000000000000
310
0000000000000000000000000000000000000000000000000000000000000000000000000000000000000000000000000000000000000000000000000000000000000000F5000000000000000000000000000000000000000000000000000000000000000000000000000000000000000000000000000000F5000000000000
310
00000000000000000000000000000000000000000000000000000000000000000000000000000000000000000000000000000000000000000000000000000000000000000000000000000000000000000000000000000000000000000000000000000000000000000000000000000000000000000000000000000000000000
310
00000000000000000000000000000000000000000000000000000000000000000000000000000000000000000000000000000000000000000000000000000000000000000000F5F500000000000000000000000000000000000000000000000000000000000000000000000000000000000000000000000000F5F500000000
310
00000000000000000000000000000000000000000000000000000000000000000000000000000000000000000000000000000000000000000000000000000000000000000000000000000000000000000000000000000000000000000000000000000000000000000000000000000000000000000000000000000000000000
310
000000000000000000000000000000000000000000000000000000000000000000000000000000000000000000000000000000000000000000000000000000000000000000000000F5F5F5F5F5F5F5F5F5F5F5F5F5F5F5F5F5F5F5F5F5F5F5F5F5F5F5F5F5F5F5F5F5F5F5F5F5F5F5F5F5F5F5F5F5F5F5F5F5F5F5F5F50000
310
00000000000000000000000000000000000000000000000000000000000000000000000000000000000000000000000000000000000000000000000000000000000000000000000000000000000000000000000000000000000000000000000000000000000000000000000000000000000000000000000000000000000000
310
000000000000000000000000000000000000000000000000000000000000000000000000000000000000000000000000000000000000000000000000000000000000000000000000000000000000000000000000000000000000000000000000000000F5F5F500000000000000000000000000000000000000000000000000
310
00000000000000000000000000000000000000000000000000000000000000000000000000000000000000000000000000000000000000000000000000000000000000000000000000000000000000000000000000000000000000000000000000000000000000000000000000000000000000000000000000000000000000
310
00000000000000000000000000000000000000000000000000000000000000000000000000000000000000000000000000000000000000000000000000000000000000000000000000000000000000000000000000000000000000000000000000000000000000000000000000000000000000000000000000000000000000
310
00000000000000000000000000000000000000000000000000000000000000000000000000000000000000000000000000000000000000000000000000000000000000000000000000000000000000000000000000000000000000000000000000000000000000000000000000000000000000000000000000000000000000
310
00000000000000000000000000000000000000000000000000000000000000000000000000000000000000000000000000000000000000000000000000000000000000000000000000000000000000000000000000000000000000000000000000000000000000000000000000000000000000000000000000000000000000
310
00000000000000000000000000000000000000000000000000000000000000000000000000000000000000000000000000000000000000000000000000000000000000000000000000000000000000000000000000000000000000000000000000000000000000000000000000000000000000000000000000000000000000
310
00000000000000000000000000000000000000000000000000000000000000000000000000000000000000000000000000000000000000000000000000000000000000000000000000000000000000000000000000000000000000000000000000000000000000000000000000000000000000000000000000000000000000
310
00000000000000000000000000000000000000000000000000000000000000000000000000000000000000000000000000000000000000000000000000000000000000000000000000000000000000000000000000000000000000000000000000000000000000000000000000000000000000000000000000000000000000
310
00000000000000000000000000000000000000000000000000000000000000000000000000000000000000000000000000000000000000000000000000000000000000000000000000000000000000000000000000000000000000000000000000000000000000000000000000000000000000000000000000000000000000
310
00000000000000000000000000000000000000000000000000000000000000000000000000000000000000000000000000000000000000000000000000000000000000000000000000000000000000000000000000000000000000000000000000000000000000000000000000000000000000000000000000000000000000
310
00000000000000000000000000000000000000000000000000000000000000000000000000000000000000000000000000000000000000000000000000000000000000000000000000000000000000000000000000000000000000000000000000000000000000000000000000000000000000000000000000000000000000
310
00000000000000000000000000000000000000000000000000000000000000000000000000000000000000000000000000000000000000000000000000000000000000000000000000000000000000000000000000000000000000000000000000000000000000000000000000000000000000000000000000000000000000
310
00000000000000000000000000000000000000000000000000000000000000000000000000000000000000000000000000000000000000000000000000000000000000000000000000000000000000000000000000000000000000000000000000000000000000000000000000000000000000000000000000000000000000
310
00000000000000000000000000000000000000000000000000000000000000000000000000000000000000000000000000000000000000000000000000000000000000000000000000000000000000000000000000000000000000000000000000000000000000000000000000000000000000000000000000000000000000
310
00000000000000000000000000000000000000000000000000000000000000000000000000000000000000000000000000000000000000000000000000000000000000000000000000000000000000000000000000000000000000000000000000000000000000000000000000000000000000000000000000000000000000
310
00000000000000000000000000000000000000000000000000000000000000000000000000000000000000000000000000000000000000000000000000000000000000000000000000000000000000000000000000000000000000000000000000000000000000000000000000000000000000000000000000000000000000
310
00000000000000000000000000000000000000000000000000000000000000000000000000000000000000000000000000000000000000000000000000000000000000000000000000000000000000000000000000000000000000000000000000000000000000000000000000000000000000000000000000000000000000
310
00000000000000000000000000000000000000000000000000000000000000000000000000000000000000000000000000000000000000000000000000000000000000000000000000000000000000000000000000000000000000000000000000000000000000000000000000000000000000000000000000000000000000
310
00000000000000000000000000000000000000000000000000000000000000000000000000000000000000000000000000000000000000000000000000000000000000000000000000000000000000000000000000000000000000000000000000000000000000000000000000000000000000000000000000000000000000
310
00000000000000000000000000000000000000000000000000000000000000000000000000000000000000000000000000000000000000000000000000000000000000000000000000000000000000000000000000000000000000000000000000000000000000000000000000000000000000000000000000000000000000
310
00000000000000000000000000000000000000000000000000000000000000000000000000000000000000000000000000000000000000000000000000000000000000000000000000000000000000000000000000000000000000000000000000000000000000000000000000000000000000000000000000000000000000
310
00000000000000000000000000000000000000000000000000000000000000000000000000000000000000000000000000000000000000000000000000000000000000000000000000000000000000000000000000000000000000000000000000000000000000000000000000000000000000000000000000000000000000
310
00000000000000000000000000000000000000000000000000000000000000000000000000000000000000000000000000000000000000000000000000000000000000000000000000000000000000000000000000000000000000000000000000000000000000000000000000000000000000000000000000000000000000
310
00000000000000000000000000000000000000000000000000000000000000000000000000000000000000000000000000000000000000000000000000000000000000000000000000000000000000000000000000000000000000000000000000000000000000000000000000000000000000000000000000000000000000
310
00000000000000000000000000000000000000000000000000000000000000000000000000000000000000000000000000000000000000000000000000000000000000000000000000000000000000000000000000000000000000000000000000000000000000000000000000000000000000000000000000000000000000
310
00000000000000000000000000000000000000000000000000000000000000000000000000000000000000000000000000000000000000000000000000000000000000000000000000000000000000000000000000000000000000000000000000000000000000000000000000000000000000000000000000000000000000
310
00000000000000000000000000000000000000000000000000000000000000000000000000000000000000000000000000000000000000000000000000000000000000000000000000000000000000000000000000000000000000000000000000000000000000000000000000000000000000000000000000000000000000
310
00000000000000000000000000000000000000000000000000000000000000000000000000000000000000000000000000000000000000000000000000000000000000000000000000000000000000000000000000000000000000000000000000000000000000000000000000000000000000000000000000000000000000
310
00000000000000000000000000000000000000000000000000000000000000000000000000000000000000000000000000000000000000000000000000000000000000000000000000000000000000000000000000000000000000000000000000000000000000000000000000000000000000000000000000000000000000
310
00000000000000000000000000000000000000000000000000000000000000000000000000000000000000000000000000000000000000000000000000000000000000000000000000000000000000000000000000000000000000000000000000000000000000000000000000000000000000000000000000000000000000
310
00000000000000000000000000000000000000000000000000000000000000000000000000000000000000000000000000000000000000000000000000000000000000000000000000000000000000000000000000000000000000000000000000000000000000000000000000000000000000000000000000000000000000
310
00000000000000000000000000000000000000000000000000000000000000000000000000000000000000000000000000000000000000000000000000000000000000000000000000000000000000000000000000000000000000000000000000000000000000000000000000000000000000000000000000000000000000
310
00000000000000000000000000000000000000000000000000000000000000000000000000000000000000000000000000000000000000000000000000000000000000000000000000000000000000000000000000000000000000000000000000000000000000000000000000000000000000000000000000000000000000
310
00000000000000000000000000000000000000000000000000000000000000000000000000000000000000000000000000000000000000000000000000000000000000000000000000000000000000000000000000000000000000000000000000000000000000000000000000000000000000000000000000000000000000
310
00000000000000000000000000000000000000000000000000000000000000000000000000000000000000000000000000000000000000000000000000000000000000000000000000000000000000000000000000000000000000000000000000000000000000000000000000000000000000000000000000000000000000
310
00000000000000000000000000000000000000000000000000000000000000000000000000000000000000000000000000000000000000000000000000000000000000000000000000000000000000000000000000000000000000000000000000000000000000000000000000000000000000000000000000000000000000
310
00000000000000000000000000000000000000000000000000000000000000000000000000000000000000000000000000000000000000000000000000000000000000000000000000000000000000000000000000000000000000000000000000000000000000000000000000000000000000000000000000000000000000
310
00000000000000000000000000000000000000000000000000000000000000000000000000000000000000000000000000000000000000000000000000000000000000000000000000000000000000000000000000000000000000000000000000000000000000000000000000000000000000000000000000000000000000
310
00000000000000000000000000000000000000000000000000000000000000000000000000000000000000000000000000000000000000000000000000000000000000000000000000000000000000000000000000000000000000000000000000000000000000000000000000000000000000000000000000000000000000
310
00000000000000000000000000000000000000000000000000000000000000000000000000000000000000000000000000000000000000000000000000000000000000000000000000000000000000000000000000000000000000000000000000000000000000000000000000000000000000000000000000000000000000
310
00000000000000000000000000000000000000000000000000000000000000000000000000000000000000000000000000000000000000000000000000000000000000000000000000000000000000000000000000000000000000000000000000000000000000000000000000000000000000000000000000000000000000
310
00000000000000000000000000000000000000000000000000000000000000000000000000000000000000000000000000000000000000000000000000000000000000000000000000000000000000000000000000000000000000000000000000000000000000000000000000000000000000000000000000000000000000
310
000000000000000000000000
  0
XRECORD
  5
269
102
{ACAD_REACTORS
330
193
102
}
330
193
100
AcDbXrecord
280
     1
102
MATERIAL
148
0.0
149
0.0
149
0.0
 93
        0
 94
      127
282
     0
 72
     0
 77
     0
171
     0
175
     0
179
     0
273
     0
  0
XRECORD
  5
195
102
{ACAD_REACTORS
330
193
102
}
330
193
100
AcDbXrecord
280
     1
270
     1
271
     1
  0
XRECORD
  5
194
102
{ACAD_REACTORS
330
193
102
}
330
193
100
AcDbXrecord
280
     1
270
     1
271
     1
  0
XRECORD
  5
198
102
{ACAD_REACTORS
330
193
102
}
330
193
100
AcDbXrecord
280
     1
270
     1
271
     1
  0
XRECORD
  5
197
102
{ACAD_REACTORS
330
193
102
}
330
193
100
AcDbXrecord
280
     1
270
     1
271
     1
  0
XRECORD
  5
199
102
{ACAD_REACTORS
330
193
102
}
330
193
100
AcDbXrecord
280
     1
270
     1
271
     1
  0
XRECORD
  5
196
102
{ACAD_REACTORS
330
193
102
}
330
193
100
AcDbXrecord
280
     1
270
     1
271
     1
  0
XRECORD
  5
268
102
{ACAD_REACTORS
330
18B
102
}
330
18B
100
AcDbXrecord
280
     1
102
MATERIAL
148
0.0
149
0.0
149
0.0
 93
        0
 94
      127
282
     0
 72
     0
 77
     0
171
     0
175
     0
179
     0
273
     0
  0
XRECORD
  5
18D
102
{ACAD_REACTORS
330
18B
102
}
330
18B
100
AcDbXrecord
280
     1
270
     1
271
     1
  0
XRECORD
  5
18C
102
{ACAD_REACTORS
330
18B
102
}
330
18B
100
AcDbXrecord
280
     1
270
     1
271
     1
  0
XRECORD
  5
190
102
{ACAD_REACTORS
330
18B
102
}
330
18B
100
AcDbXrecord
280
     1
270
     1
271
     1
  0
XRECORD
  5
18F
102
{ACAD_REACTORS
330
18B
102
}
330
18B
100
AcDbXrecord
280
     1
270
     1
271
     1
  0
XRECORD
  5
191
102
{ACAD_REACTORS
330
18B
102
}
330
18B
100
AcDbXrecord
280
     1
270
     1
271
     1
  0
XRECORD
  5
18E
102
{ACAD_REACTORS
330
18B
102
}
330
18B
100
AcDbXrecord
280
     1
270
     1
271
     1
  0
XRECORD
  5
26A
102
{ACAD_REACTORS
330
19B
102
}
330
19B
100
AcDbXrecord
280
     1
102
MATERIAL
148
0.0
149
0.0
149
0.0
 93
        0
 94
      127
282
     0
 72
     0
 77
     0
171
     0
175
     0
179
     0
273
     0
  0
XRECORD
  5
19D
102
{ACAD_REACTORS
330
19B
102
}
330
19B
100
AcDbXrecord
280
     1
270
     1
271
     1
  0
XRECORD
  5
19C
102
{ACAD_REACTORS
330
19B
102
}
330
19B
100
AcDbXrecord
280
     1
270
     1
271
     1
  0
XRECORD
  5
1A0
102
{ACAD_REACTORS
330
19B
102
}
330
19B
100
AcDbXrecord
280
     1
270
     1
271
     1
  0
XRECORD
  5
19F
102
{ACAD_REACTORS
330
19B
102
}
330
19B
100
AcDbXrecord
280
     1
270
     1
271
     1
  0
XRECORD
  5
1A1
102
{ACAD_REACTORS
330
19B
102
}
330
19B
100
AcDbXrecord
280
     1
270
     1
271
     1
  0
XRECORD
  5
19E
102
{ACAD_REACTORS
330
19B
102
}
330
19B
100
AcDbXrecord
280
     1
270
     1
271
     1
  0
CELLSTYLEMAP
  5
A23
102
{ACAD_REACTORS
330
262
102
}
330
262
100
AcDbCellStyleMap
 90
        3
300
CELLSTYLE
  1
TABLEFORMAT_BEGIN
 90
        5
170
     1
 91
        0
 92
    32768
 62
   257
 93
        1
300
CONTENTFORMAT
  1
CONTENTFORMAT_BEGIN
 90
        0
 91
        0
 92
      512
 93
        0
300

 40
0.0
140
1.0
 94
        5
 62
     0
340
1D6
144
0.25
309
CONTENTFORMAT_END
171
     1
301
MARGIN
  1
CELLMARGIN_BEGIN
 40
0.06
 40
0.06
 40
0.06
 40
0.06
 40
0.18
 40
0.18
309
CELLMARGIN_END
 94
        6
 95
        1
302
GRIDFORMAT
  1
GRIDFORMAT_BEGIN
 90
        0
 91
        1
 62
     0
 92
       -2
340
0
 93
        0
 40
0.045
309
GRIDFORMAT_END
 95
        2
302
GRIDFORMAT
  1
GRIDFORMAT_BEGIN
 90
        0
 91
        1
 62
     0
 92
       -2
340
0
 93
        0
 40
0.045
309
GRIDFORMAT_END
 95
        4
302
GRIDFORMAT
  1
GRIDFORMAT_BEGIN
 90
        0
 91
        1
 62
     0
 92
       -2
340
0
 93
        0
 40
0.045
309
GRIDFORMAT_END
 95
        8
302
GRIDFORMAT
  1
GRIDFORMAT_BEGIN
 90
        0
 91
        1
 62
     0
 92
       -2
340
0
 93
        0
 40
0.045
309
GRIDFORMAT_END
 95
       16
302
GRIDFORMAT
  1
GRIDFORMAT_BEGIN
 90
        0
 91
        1
 62
     0
 92
       -2
340
0
 93
        0
 40
0.045
309
GRIDFORMAT_END
 95
       32
302
GRIDFORMAT
  1
GRIDFORMAT_BEGIN
 90
        0
 91
        1
 62
     0
 92
       -2
340
0
 93
        0
 40
0.045
309
GRIDFORMAT_END
309
TABLEFORMAT_END
  1
CELLSTYLE_BEGIN
 90
        1
 91
        1
300
_TITLE
309
CELLSTYLE_END
300
CELLSTYLE
  1
TABLEFORMAT_BEGIN
 90
        5
170
     1
 91
        0
 92
        0
 62
   257
 93
        1
300
CONTENTFORMAT
  1
CONTENTFORMAT_BEGIN
 90
        0
 91
        0
 92
      512
 93
        0
300

 40
0.0
140
1.0
 94
        5
 62
     0
340
1D6
144
0.18
309
CONTENTFORMAT_END
171
     1
301
MARGIN
  1
CELLMARGIN_BEGIN
 40
0.06
 40
0.06
 40
0.06
 40
0.06
 40
0.18
 40
0.18
309
CELLMARGIN_END
 94
        6
 95
        1
302
GRIDFORMAT
  1
GRIDFORMAT_BEGIN
 90
        0
 91
        1
 62
     0
 92
       -2
340
0
 93
        0
 40
0.045
309
GRIDFORMAT_END
 95
        2
302
GRIDFORMAT
  1
GRIDFORMAT_BEGIN
 90
        0
 91
        1
 62
     0
 92
       -2
340
0
 93
        0
 40
0.045
309
GRIDFORMAT_END
 95
        4
302
GRIDFORMAT
  1
GRIDFORMAT_BEGIN
 90
        0
 91
        1
 62
     0
 92
       -2
340
0
 93
        0
 40
0.045
309
GRIDFORMAT_END
 95
        8
302
GRIDFORMAT
  1
GRIDFORMAT_BEGIN
 90
        0
 91
        1
 62
     0
 92
       -2
340
0
 93
        0
 40
0.045
309
GRIDFORMAT_END
 95
       16
302
GRIDFORMAT
  1
GRIDFORMAT_BEGIN
 90
        0
 91
        1
 62
     0
 92
       -2
340
0
 93
        0
 40
0.045
309
GRIDFORMAT_END
 95
       32
302
GRIDFORMAT
  1
GRIDFORMAT_BEGIN
 90
        0
 91
        1
 62
     0
 92
       -2
340
0
 93
        0
 40
0.045
309
GRIDFORMAT_END
309
TABLEFORMAT_END
  1
CELLSTYLE_BEGIN
 90
        2
 91
        1
300
_HEADER
309
CELLSTYLE_END
300
CELLSTYLE
  1
TABLEFORMAT_BEGIN
 90
        5
170
     1
 91
        0
 92
        0
 62
   257
 93
        1
300
CONTENTFORMAT
  1
CONTENTFORMAT_BEGIN
 90
        0
 91
        0
 92
      512
 93
        0
300

 40
0.0
140
1.0
 94
        2
 62
     0
340
1D6
144
0.18
309
CONTENTFORMAT_END
171
     1
301
MARGIN
  1
CELLMARGIN_BEGIN
 40
0.06
 40
0.06
 40
0.06
 40
0.06
 40
0.18
 40
0.18
309
CELLMARGIN_END
 94
        6
 95
        1
302
GRIDFORMAT
  1
GRIDFORMAT_BEGIN
 90
        0
 91
        1
 62
     0
 92
       -2
340
0
 93
        0
 40
0.045
309
GRIDFORMAT_END
 95
        2
302
GRIDFORMAT
  1
GRIDFORMAT_BEGIN
 90
        0
 91
        1
 62
     0
 92
       -2
340
0
 93
        0
 40
0.045
309
GRIDFORMAT_END
 95
        4
302
GRIDFORMAT
  1
GRIDFORMAT_BEGIN
 90
        0
 91
        1
 62
     0
 92
       -2
340
0
 93
        0
 40
0.045
309
GRIDFORMAT_END
 95
        8
302
GRIDFORMAT
  1
GRIDFORMAT_BEGIN
 90
        0
 91
        1
 62
     0
 92
       -2
340
0
 93
        0
 40
0.045
309
GRIDFORMAT_END
 95
       16
302
GRIDFORMAT
  1
GRIDFORMAT_BEGIN
 90
        0
 91
        1
 62
     0
 92
       -2
340
0
 93
        0
 40
0.045
309
GRIDFORMAT_END
 95
       32
302
GRIDFORMAT
  1
GRIDFORMAT_BEGIN
 90
        0
 91
        1
 62
     0
 92
       -2
340
0
 93
        0
 40
0.045
309
GRIDFORMAT_END
309
TABLEFORMAT_END
  1
CELLSTYLE_BEGIN
 90
        3
 91
        2
300
_DATA
309
CELLSTYLE_END
  0
XRECORD
  5
A46
102
{ACAD_REACTORS
330
262
102
}
330
262
100
AcDbXrecord
280
     1
102
ACAD_ROUNDTRIP_PRE2007_TABLESTYLE
 90
      512
 91
        0
  1

 92
      512
 93
        0
  2

 94
      512
 95
        0
  3

  0
XRECORD
  5
A31
102
{ACAD_REACTORS
330
A30
102
}
330
A30
100
AcDbXrecord
280
     1
102
RTVSPropertyOp0
 70
     1
102
RTVSPropertyOp1
 70
     1
102
RTVSPropertyOp2
 70
     1
102
RTVSPropertyOp3
 70
     1
102
RTVSPropertyOp4
 70
     1
102
RTVSPropertyOp5
 70
     1
102
RTVSPropertyOp6
 70
     1
102
RTVSPropertyOp7
 70
     1
102
RTVSPropertyOp8
 70
     1
102
RTVSPropertyOp9
 70
     1
102
RTVSPropertyOp10
 70
     1
102
RTVSPropertyOp11
 70
     1
102
RTVSPropertyOp12
 70
     1
102
RTVSPropertyOp13
 70
     1
102
RTVSPropertyOp14
 70
     1
102
RTVSPropertyOp15
 70
     1
102
RTVSPropertyOp16
 70
     1
102
RTVSPropertyOp17
 70
     1
102
RTVSPropertyOp18
 70
     1
102
RTVSPropertyOp19
 70
     1
102
RTVSPropertyOp20
 70
     1
102
RTVSPropertyOp21
 70
     1
102
RTVSPropertyOp22
 70
     1
102
RTVSPropertyOp23
 70
     1
102
RTVSPropertyOp24
 70
     1
102
RTVSPropertyOp25
 70
     1
102
RTVSPropertyOp26
 70
     1
102
RTVSPropertyOp27
 70
     1
102
RTVSPropertyOp28
 70
     1
102
RTVSPropertyOp29
 70
     1
102
RTVSPropertyOp30
 70
     1
102
RTVSPropertyOp31
 70
     1
102
RTVSPropertyOp32
 70
     1
  0
XRECORD
  5
A35
102
{ACAD_REACTORS
330
A34
102
}
330
A34
100
AcDbXrecord
280
     1
102
RTVSPropertyOp0
 70
     1
102
RTVSPropertyOp1
 70
     1
102
RTVSPropertyOp2
 70
     1
102
RTVSPropertyOp3
 70
     1
102
RTVSPropertyOp4
 70
     1
102
RTVSPropertyOp5
 70
     1
102
RTVSPropertyOp6
 70
     1
102
RTVSPropertyOp7
 70
     1
102
RTVSPropertyOp8
 70
     1
102
RTVSPropertyOp9
 70
     1
102
RTVSPropertyOp10
 70
     1
102
RTVSPropertyOp11
 70
     1
102
RTVSPropertyOp12
 70
     1
102
RTVSPropertyOp13
 70
     1
102
RTVSPropertyOp14
 70
     1
102
RTVSPropertyOp15
 70
     1
102
RTVSPropertyOp16
 70
     1
102
RTVSPropertyOp17
 70
     1
102
RTVSPropertyOp18
 70
     1
102
RTVSPropertyOp19
 70
     1
102
RTVSPropertyOp20
 70
     1
102
RTVSPropertyOp21
 70
     1
102
RTVSPropertyOp22
 70
     1
102
RTVSPropertyOp23
 70
     1
102
RTVSPropertyOp24
 70
     1
102
RTVSPropertyOp25
 70
     1
102
RTVSPropertyOp26
 70
     1
102
RTVSPropertyOp27
 70
     1
102
RTVSPropertyOp28
 70
     1
102
RTVSPropertyOp29
 70
     1
102
RTVSPropertyOp30
 70
     1
102
RTVSPropertyOp31
 70
     1
102
RTVSPropertyOp32
 70
     1
  0
XRECORD
  5
A33
102
{ACAD_REACTORS
330
A32
102
}
330
A32
100
AcDbXrecord
280
     1
102
RTVSPropertyOp0
 70
     1
102
RTVSPropertyOp1
 70
     1
102
RTVSPropertyOp2
 70
     1
102
RTVSPropertyOp3
 70
     1
102
RTVSPropertyOp4
 70
     1
102
RTVSPropertyOp5
 70
     1
102
RTVSPropertyOp6
 70
     1
102
RTVSPropertyOp7
 70
     1
102
RTVSPropertyOp8
 70
     1
102
RTVSPropertyOp9
 70
     1
102
RTVSPropertyOp10
 70
     1
102
RTVSPropertyOp11
 70
     1
102
RTVSPropertyOp12
 70
     1
102
RTVSPropertyOp13
 70
     1
102
RTVSPropertyOp14
 70
     1
102
RTVSPropertyOp15
 70
     1
102
RTVSPropertyOp16
 70
     1
102
RTVSPropertyOp17
 70
     1
102
RTVSPropertyOp18
 70
     1
102
RTVSPropertyOp19
 70
     1
102
RTVSPropertyOp20
 70
     1
102
RTVSPropertyOp21
 70
     1
102
RTVSPropertyOp22
 70
     1
102
RTVSPropertyOp23
 70
     1
102
RTVSPropertyOp24
 70
     1
102
RTVSPropertyOp25
 70
     1
102
RTVSPropertyOp26
 70
     1
102
RTVSPropertyOp27
 70
     1
102
RTVSPropertyOp28
 70
     1
102
RTVSPropertyOp29
 70
     1
102
RTVSPropertyOp30
 70
     1
102
RTVSPropertyOp31
 70
     1
102
RTVSPropertyOp32
 70
     1
  0
XRECORD
  5
A2F
102
{ACAD_REACTORS
330
A2E
102
}
330
A2E
100
AcDbXrecord
280
     1
102
RTVSPropertyOp0
 70
     1
102
RTVSPropertyOp1
 70
     1
102
RTVSPropertyOp2
 70
     1
102
RTVSPropertyOp3
 70
     1
102
RTVSPropertyOp4
 70
     1
102
RTVSPropertyOp5
 70
     1
102
RTVSPropertyOp6
 70
     1
102
RTVSPropertyOp7
 70
     1
102
RTVSPropertyOp8
 70
     1
102
RTVSPropertyOp9
 70
     1
102
RTVSPropertyOp10
 70
     1
102
RTVSPropertyOp11
 70
     1
102
RTVSPropertyOp12
 70
     1
102
RTVSPropertyOp13
 70
     1
102
RTVSPropertyOp14
 70
     1
102
RTVSPropertyOp15
 70
     1
102
RTVSPropertyOp16
 70
     1
102
RTVSPropertyOp17
 70
     1
102
RTVSPropertyOp18
 70
     1
102
RTVSPropertyOp19
 70
     1
102
RTVSPropertyOp20
 70
     1
102
RTVSPropertyOp21
 70
     1
102
RTVSPropertyOp22
 70
     1
102
RTVSPropertyOp23
 70
     1
102
RTVSPropertyOp24
 70
     1
102
RTVSPropertyOp25
 70
     1
102
RTVSPropertyOp26
 70
     1
102
RTVSPropertyOp27
 70
     1
102
RTVSPropertyOp28
 70
     1
102
RTVSPropertyOp29
 70
     1
102
RTVSPropertyOp30
 70
     1
102
RTVSPropertyOp31
 70
     1
102
RTVSPropertyOp32
 70
     1
  0
XRECORD
  5
A3D
102
{ACAD_REACTORS
330
A3C
102
}
330
A3C
100
AcDbXrecord
280
     1
102
RTVSPropertyOp0
 70
     1
102
RTVSPropertyOp1
 70
     1
102
RTVSPropertyOp2
 70
     1
102
RTVSPropertyOp3
 70
     1
102
RTVSPropertyOp4
 70
     1
102
RTVSPropertyOp5
 70
     1
102
RTVSPropertyOp6
 70
     1
102
RTVSPropertyOp7
 70
     1
102
RTVSPropertyOp8
 70
     1
102
RTVSPropertyOp9
 70
     1
102
RTVSPropertyOp10
 70
     1
102
RTVSPropertyOp11
 70
     1
102
RTVSPropertyOp12
 70
     1
102
RTVSPropertyOp13
 70
     1
102
RTVSPropertyOp14
 70
     1
102
RTVSPropertyOp15
 70
     1
102
RTVSPropertyOp16
 70
     1
102
RTVSPropertyOp17
 70
     1
102
RTVSPropertyOp18
 70
     1
102
RTVSPropertyOp19
 70
     1
102
RTVSPropertyOp20
 70
     1
102
RTVSPropertyOp21
 70
     1
102
RTVSPropertyOp22
 70
     1
102
RTVSPropertyOp23
 70
     1
102
RTVSPropertyOp24
 70
     1
102
RTVSPropertyOp25
 70
     1
102
RTVSPropertyOp26
 70
     1
102
RTVSPropertyOp27
 70
     1
102
RTVSPropertyOp28
 70
     1
102
RTVSPropertyOp29
 70
     1
102
RTVSPropertyOp30
 70
     1
102
RTVSPropertyOp31
 70
     1
102
RTVSPropertyOp32
 70
     1
  0
XRECORD
  5
A45
102
{ACAD_REACTORS
330
A44
102
}
330
A44
100
AcDbXrecord
280
     1
102
RTVSPropertyOp0
 70
     1
102
RTVSPropertyOp1
 70
     1
102
RTVSPropertyOp2
 70
     1
102
RTVSPropertyOp3
 70
     1
102
RTVSPropertyOp4
 70
     1
102
RTVSPropertyOp5
 70
     1
102
RTVSPropertyOp6
 70
     1
102
RTVSPropertyOp7
 70
     1
102
RTVSPropertyOp8
 70
     1
102
RTVSPropertyOp9
 70
     1
102
RTVSPropertyOp10
 70
     1
102
RTVSPropertyOp11
 70
     1
102
RTVSPropertyOp12
 70
     1
102
RTVSPropertyOp13
 70
     1
102
RTVSPropertyOp14
 70
     1
102
RTVSPropertyOp15
 70
     1
102
RTVSPropertyOp16
 70
     1
102
RTVSPropertyOp17
 70
     1
102
RTVSPropertyOp18
 70
     1
102
RTVSPropertyOp19
 70
     1
102
RTVSPropertyOp20
 70
     1
102
RTVSPropertyOp21
 70
     1
102
RTVSPropertyOp22
 70
     1
102
RTVSPropertyOp23
 70
     1
102
RTVSPropertyOp24
 70
     1
102
RTVSPropertyOp25
 70
     1
102
RTVSPropertyOp26
 70
     1
102
RTVSPropertyOp27
 70
     1
102
RTVSPropertyOp28
 70
     1
102
RTVSPropertyOp29
 70
     1
102
RTVSPropertyOp30
 70
     1
102
RTVSPropertyOp31
 70
     1
102
RTVSPropertyOp32
 70
     1
  0
XRECORD
  5
A37
102
{ACAD_REACTORS
330
A36
102
}
330
A36
100
AcDbXrecord
280
     1
102
RTVSPropertyOp0
 70
     1
102
RTVSPropertyOp1
 70
     1
102
RTVSPropertyOp2
 70
     1
102
RTVSPropertyOp3
 70
     1
102
RTVSPropertyOp4
 70
     1
102
RTVSPropertyOp5
 70
     1
102
RTVSPropertyOp6
 70
     1
102
RTVSPropertyOp7
 70
     1
102
RTVSPropertyOp8
 70
     1
102
RTVSPropertyOp9
 70
     1
102
RTVSPropertyOp10
 70
     1
102
RTVSPropertyOp11
 70
     1
102
RTVSPropertyOp12
 70
     1
102
RTVSPropertyOp13
 70
     1
102
RTVSPropertyOp14
 70
     1
102
RTVSPropertyOp15
 70
     1
102
RTVSPropertyOp16
 70
     1
102
RTVSPropertyOp17
 70
     1
102
RTVSPropertyOp18
 70
     1
102
RTVSPropertyOp19
 70
     1
102
RTVSPropertyOp20
 70
     1
102
RTVSPropertyOp21
 70
     1
102
RTVSPropertyOp22
 70
     1
102
RTVSPropertyOp23
 70
     1
102
RTVSPropertyOp24
 70
     1
102
RTVSPropertyOp25
 70
     1
102
RTVSPropertyOp26
 70
     1
102
RTVSPropertyOp27
 70
     1
102
RTVSPropertyOp28
 70
     1
102
RTVSPropertyOp29
 70
     1
102
RTVSPropertyOp30
 70
     1
102
RTVSPropertyOp31
 70
     1
102
RTVSPropertyOp32
 70
     1
  0
XRECORD
  5
A3B
102
{ACAD_REACTORS
330
A3A
102
}
330
A3A
100
AcDbXrecord
280
     1
102
RTVSPropertyOp0
 70
     1
102
RTVSPropertyOp1
 70
     1
102
RTVSPropertyOp2
 70
     1
102
RTVSPropertyOp3
 70
     1
102
RTVSPropertyOp4
 70
     1
102
RTVSPropertyOp5
 70
     1
102
RTVSPropertyOp6
 70
     1
102
RTVSPropertyOp7
 70
     1
102
RTVSPropertyOp8
 70
     1
102
RTVSPropertyOp9
 70
     1
102
RTVSPropertyOp10
 70
     1
102
RTVSPropertyOp11
 70
     1
102
RTVSPropertyOp12
 70
     1
102
RTVSPropertyOp13
 70
     1
102
RTVSPropertyOp14
 70
     1
102
RTVSPropertyOp15
 70
     1
102
RTVSPropertyOp16
 70
     1
102
RTVSPropertyOp17
 70
     1
102
RTVSPropertyOp18
 70
     1
102
RTVSPropertyOp19
 70
     1
102
RTVSPropertyOp20
 70
     1
102
RTVSPropertyOp21
 70
     1
102
RTVSPropertyOp22
 70
     1
102
RTVSPropertyOp23
 70
     1
102
RTVSPropertyOp24
 70
     1
102
RTVSPropertyOp25
 70
     1
102
RTVSPropertyOp26
 70
     1
102
RTVSPropertyOp27
 70
     1
102
RTVSPropertyOp28
 70
     1
102
RTVSPropertyOp29
 70
     1
102
RTVSPropertyOp30
 70
     1
102
RTVSPropertyOp31
 70
     1
102
RTVSPropertyOp32
 70
     1
  0
XRECORD
  5
A5D
102
{ACAD_REACTORS
330
A5C
102
}
330
A5C
100
AcDbXrecord
280
     1
102
RTVSPropertyOp0
 70
     0
102
RTVSPropertyOp1
 70
     0
102
RTVSPropertyOp2
 70
     0
102
RTVSPropertyOp3
 70
     0
102
RTVSPropertyOp4
 70
     0
102
RTVSPropertyOp5
 70
     0
102
RTVSPropertyOp6
 70
     0
102
RTVSPropertyOp7
 70
     0
102
RTVSPropertyOp8
 70
     0
102
RTVSPropertyOp9
 70
     0
102
RTVSPropertyOp10
 70
     0
102
RTVSPropertyOp11
 70
     0
102
RTVSPropertyOp12
 70
     0
102
RTVSPropertyOp13
 70
     0
102
RTVSPropertyOp14
 70
     2
102
RTVSPropertyOp15
 70
     0
102
RTVSPropertyOp16
 70
     0
102
RTVSPropertyOp17
 70
     0
102
RTVSPropertyOp18
 70
     0
102
RTVSPropertyOp19
 70
     0
102
RTVSPropertyOp20
 70
     0
102
RTVSPropertyOp21
 70
     0
102
RTVSPropertyOp22
 70
     0
102
RTVSPropertyOp23
 70
     0
102
RTVSPropertyOp24
 70
     0
102
RTVSPropertyOp25
 70
     0
102
RTVSPropertyOp26
 70
     0
102
RTVSPropertyOp27
 70
     0
102
RTVSPropertyOp28
 70
     1
102
RTVSPropertyOp29
 70
     1
102
RTVSPropertyOp30
 70
     1
102
RTVSPropertyOp31
 70
     1
102
RTVSPropertyOp32
 70
     1
  0
XRECORD
  5
A43
102
{ACAD_REACTORS
330
A42
102
}
330
A42
100
AcDbXrecord
280
     1
102
RTVSPropertyOp0
 70
     1
102
RTVSPropertyOp1
 70
     1
102
RTVSPropertyOp2
 70
     1
102
RTVSPropertyOp3
 70
     1
102
RTVSPropertyOp4
 70
     1
102
RTVSPropertyOp5
 70
     1
102
RTVSPropertyOp6
 70
     1
102
RTVSPropertyOp7
 70
     1
102
RTVSPropertyOp8
 70
     1
102
RTVSPropertyOp9
 70
     1
102
RTVSPropertyOp10
 70
     1
102
RTVSPropertyOp11
 70
     1
102
RTVSPropertyOp12
 70
     1
102
RTVSPropertyOp13
 70
     1
102
RTVSPropertyOp14
 70
     1
102
RTVSPropertyOp15
 70
     1
102
RTVSPropertyOp16
 70
     1
102
RTVSPropertyOp17
 70
     1
102
RTVSPropertyOp18
 70
     1
102
RTVSPropertyOp19
 70
     1
102
RTVSPropertyOp20
 70
     1
102
RTVSPropertyOp21
 70
     1
102
RTVSPropertyOp22
 70
     1
102
RTVSPropertyOp23
 70
     1
102
RTVSPropertyOp24
 70
     1
102
RTVSPropertyOp25
 70
     1
102
RTVSPropertyOp26
 70
     1
102
RTVSPropertyOp27
 70
     1
102
RTVSPropertyOp28
 70
     1
102
RTVSPropertyOp29
 70
     1
102
RTVSPropertyOp30
 70
     1
102
RTVSPropertyOp31
 70
     1
102
RTVSPropertyOp32
 70
     1
  0
XRECORD
  5
A27
102
{ACAD_REACTORS
330
A26
102
}
330
A26
100
AcDbXrecord
280
     1
102
RTVSPropertyOp0
 70
     1
102
RTVSPropertyOp1
 70
     1
102
RTVSPropertyOp2
 70
     1
102
RTVSPropertyOp3
 70
     1
102
RTVSPropertyOp4
 70
     1
102
RTVSPropertyOp5
 70
     1
102
RTVSPropertyOp6
 70
     1
102
RTVSPropertyOp7
 70
     1
102
RTVSPropertyOp8
 70
     1
102
RTVSPropertyOp9
 70
     1
102
RTVSPropertyOp10
 70
     1
102
RTVSPropertyOp11
 70
     1
102
RTVSPropertyOp12
 70
     1
102
RTVSPropertyOp13
 70
     1
102
RTVSPropertyOp14
 70
     1
102
RTVSPropertyOp15
 70
     1
102
RTVSPropertyOp16
 70
     1
102
RTVSPropertyOp17
 70
     1
102
RTVSPropertyOp18
 70
     1
102
RTVSPropertyOp19
 70
     1
102
RTVSPropertyOp20
 70
     1
102
RTVSPropertyOp21
 70
     1
102
RTVSPropertyOp22
 70
     1
102
RTVSPropertyOp23
 70
     1
102
RTVSPropertyOp24
 70
     1
102
RTVSPropertyOp25
 70
     1
102
RTVSPropertyOp26
 70
     1
102
RTVSPropertyOp27
 70
     1
102
RTVSPropertyOp28
 70
     1
102
RTVSPropertyOp29
 70
     1
102
RTVSPropertyOp30
 70
     1
102
RTVSPropertyOp31
 70
     1
102
RTVSPropertyOp32
 70
     1
  0
XRECORD
  5
A29
102
{ACAD_REACTORS
330
A28
102
}
330
A28
100
AcDbXrecord
280
     1
102
RTVSPropertyOp0
 70
     1
102
RTVSPropertyOp1
 70
     1
102
RTVSPropertyOp2
 70
     1
102
RTVSPropertyOp3
 70
     1
102
RTVSPropertyOp4
 70
     1
102
RTVSPropertyOp5
 70
     1
102
RTVSPropertyOp6
 70
     1
102
RTVSPropertyOp7
 70
     1
102
RTVSPropertyOp8
 70
     1
102
RTVSPropertyOp9
 70
     1
102
RTVSPropertyOp10
 70
     1
102
RTVSPropertyOp11
 70
     1
102
RTVSPropertyOp12
 70
     1
102
RTVSPropertyOp13
 70
     1
102
RTVSPropertyOp14
 70
     1
102
RTVSPropertyOp15
 70
     1
102
RTVSPropertyOp16
 70
     1
102
RTVSPropertyOp17
 70
     1
102
RTVSPropertyOp18
 70
     1
102
RTVSPropertyOp19
 70
     1
102
RTVSPropertyOp20
 70
     1
102
RTVSPropertyOp21
 70
     1
102
RTVSPropertyOp22
 70
     1
102
RTVSPropertyOp23
 70
     1
102
RTVSPropertyOp24
 70
     1
102
RTVSPropertyOp25
 70
     1
102
RTVSPropertyOp26
 70
     1
102
RTVSPropertyOp27
 70
     1
102
RTVSPropertyOp28
 70
     1
102
RTVSPropertyOp29
 70
     1
102
RTVSPropertyOp30
 70
     1
102
RTVSPropertyOp31
 70
     1
102
RTVSPropertyOp32
 70
     1
  0
XRECORD
  5
A2B
102
{ACAD_REACTORS
330
A2A
102
}
330
A2A
100
AcDbXrecord
280
     1
102
RTVSPropertyOp0
 70
     1
102
RTVSPropertyOp1
 70
     1
102
RTVSPropertyOp2
 70
     1
102
RTVSPropertyOp3
 70
     1
102
RTVSPropertyOp4
 70
     1
102
RTVSPropertyOp5
 70
     1
102
RTVSPropertyOp6
 70
     1
102
RTVSPropertyOp7
 70
     1
102
RTVSPropertyOp8
 70
     1
102
RTVSPropertyOp9
 70
     1
102
RTVSPropertyOp10
 70
     1
102
RTVSPropertyOp11
 70
     1
102
RTVSPropertyOp12
 70
     1
102
RTVSPropertyOp13
 70
     1
102
RTVSPropertyOp14
 70
     1
102
RTVSPropertyOp15
 70
     1
102
RTVSPropertyOp16
 70
     1
102
RTVSPropertyOp17
 70
     1
102
RTVSPropertyOp18
 70
     1
102
RTVSPropertyOp19
 70
     1
102
RTVSPropertyOp20
 70
     1
102
RTVSPropertyOp21
 70
     1
102
RTVSPropertyOp22
 70
     1
102
RTVSPropertyOp23
 70
     1
102
RTVSPropertyOp24
 70
     1
102
RTVSPropertyOp25
 70
     1
102
RTVSPropertyOp26
 70
     1
102
RTVSPropertyOp27
 70
     1
102
RTVSPropertyOp28
 70
     1
102
RTVSPropertyOp29
 70
     1
102
RTVSPropertyOp30
 70
     1
102
RTVSPropertyOp31
 70
     1
102
RTVSPropertyOp32
 70
     1
  0
XRECORD
  5
A2D
102
{ACAD_REACTORS
330
A2C
102
}
330
A2C
100
AcDbXrecord
280
     1
102
RTVSPropertyOp0
 70
     1
102
RTVSPropertyOp1
 70
     1
102
RTVSPropertyOp2
 70
     1
102
RTVSPropertyOp3
 70
     1
102
RTVSPropertyOp4
 70
     1
102
RTVSPropertyOp5
 70
     1
102
RTVSPropertyOp6
 70
     1
102
RTVSPropertyOp7
 70
     1
102
RTVSPropertyOp8
 70
     1
102
RTVSPropertyOp9
 70
     1
102
RTVSPropertyOp10
 70
     1
102
RTVSPropertyOp11
 70
     1
102
RTVSPropertyOp12
 70
     1
102
RTVSPropertyOp13
 70
     1
102
RTVSPropertyOp14
 70
     1
102
RTVSPropertyOp15
 70
     1
102
RTVSPropertyOp16
 70
     1
102
RTVSPropertyOp17
 70
     1
102
RTVSPropertyOp18
 70
     1
102
RTVSPropertyOp19
 70
     1
102
RTVSPropertyOp20
 70
     1
102
RTVSPropertyOp21
 70
     1
102
RTVSPropertyOp22
 70
     1
102
RTVSPropertyOp23
 70
     1
102
RTVSPropertyOp24
 70
     1
102
RTVSPropertyOp25
 70
     1
102
RTVSPropertyOp26
 70
     1
102
RTVSPropertyOp27
 70
     1
102
RTVSPropertyOp28
 70
     1
102
RTVSPropertyOp29
 70
     1
102
RTVSPropertyOp30
 70
     1
102
RTVSPropertyOp31
 70
     1
102
RTVSPropertyOp32
 70
     1
  0
XRECORD
  5
A4D
102
{ACAD_REACTORS
330
A4C
102
}
330
A4C
100
AcDbXrecord
280
     1
102
RTVSPropertyOp0
 70
     1
102
RTVSPropertyOp1
 70
     1
102
RTVSPropertyOp2
 70
     1
102
RTVSPropertyOp3
 70
     1
102
RTVSPropertyOp4
 70
     1
102
RTVSPropertyOp5
 70
     1
102
RTVSPropertyOp6
 70
     1
102
RTVSPropertyOp7
 70
     1
102
RTVSPropertyOp8
 70
     1
102
RTVSPropertyOp9
 70
     1
102
RTVSPropertyOp10
 70
     1
102
RTVSPropertyOp11
 70
     1
102
RTVSPropertyOp12
 70
     1
102
RTVSPropertyOp13
 70
     1
102
RTVSPropertyOp14
 70
     1
102
RTVSPropertyOp15
 70
     1
102
RTVSPropertyOp16
 70
     1
102
RTVSPropertyOp17
 70
     1
102
RTVSPropertyOp18
 70
     1
102
RTVSPropertyOp19
 70
     1
102
RTVSPropertyOp20
 70
     1
102
RTVSPropertyOp21
 70
     1
102
RTVSPropertyOp22
 70
     1
102
RTVSPropertyOp23
 70
     1
102
RTVSPropertyOp24
 70
     1
102
RTVSPropertyOp25
 70
     1
102
RTVSPropertyOp26
 70
     1
102
RTVSPropertyOp27
 70
     1
102
RTVSPropertyOp28
 70
     1
102
RTVSPropertyOp29
 70
     1
102
RTVSPropertyOp30
 70
     1
102
RTVSPropertyOp31
 70
     1
102
RTVSPropertyOp32
 70
     1
  0
XRECORD
  5
A59
102
{ACAD_REACTORS
330
A58
102
}
330
A58
100
AcDbXrecord
280
     1
102
RTVSPropertyOp0
 70
     0
102
RTVSPropertyOp1
 70
     0
102
RTVSPropertyOp2
 70
     0
102
RTVSPropertyOp3
 70
     0
102
RTVSPropertyOp4
 70
     0
102
RTVSPropertyOp5
 70
     0
102
RTVSPropertyOp6
 70
     0
102
RTVSPropertyOp7
 70
     0
102
RTVSPropertyOp8
 70
     0
102
RTVSPropertyOp9
 70
     0
102
RTVSPropertyOp10
 70
     0
102
RTVSPropertyOp11
 70
     0
102
RTVSPropertyOp12
 70
     0
102
RTVSPropertyOp13
 70
     0
102
RTVSPropertyOp14
 70
     2
102
RTVSPropertyOp15
 70
     0
102
RTVSPropertyOp16
 70
     0
102
RTVSPropertyOp17
 70
     0
102
RTVSPropertyOp18
 70
     0
102
RTVSPropertyOp19
 70
     0
102
RTVSPropertyOp20
 70
     0
102
RTVSPropertyOp21
 70
     0
102
RTVSPropertyOp22
 70
     0
102
RTVSPropertyOp23
 70
     0
102
RTVSPropertyOp24
 70
     0
102
RTVSPropertyOp25
 70
     0
102
RTVSPropertyOp26
 70
     0
102
RTVSPropertyOp27
 70
     0
102
RTVSPropertyOp28
 70
     1
102
RTVSPropertyOp29
 70
     1
102
RTVSPropertyOp30
 70
     1
102
RTVSPropertyOp31
 70
     1
102
RTVSPropertyOp32
 70
     1
  0
XRECORD
  5
A41
102
{ACAD_REACTORS
330
A40
102
}
330
A40
100
AcDbXrecord
280
     1
102
RTVSPropertyOp0
 70
     1
102
RTVSPropertyOp1
 70
     1
102
RTVSPropertyOp2
 70
     1
102
RTVSPropertyOp3
 70
     1
102
RTVSPropertyOp4
 70
     1
102
RTVSPropertyOp5
 70
     1
102
RTVSPropertyOp6
 70
     1
102
RTVSPropertyOp7
 70
     1
102
RTVSPropertyOp8
 70
     1
102
RTVSPropertyOp9
 70
     1
102
RTVSPropertyOp10
 70
     1
102
RTVSPropertyOp11
 70
     1
102
RTVSPropertyOp12
 70
     1
102
RTVSPropertyOp13
 70
     1
102
RTVSPropertyOp14
 70
     1
102
RTVSPropertyOp15
 70
     1
102
RTVSPropertyOp16
 70
     1
102
RTVSPropertyOp17
 70
     1
102
RTVSPropertyOp18
 70
     1
102
RTVSPropertyOp19
 70
     1
102
RTVSPropertyOp20
 70
     1
102
RTVSPropertyOp21
 70
     1
102
RTVSPropertyOp22
 70
     1
102
RTVSPropertyOp23
 70
     1
102
RTVSPropertyOp24
 70
     1
102
RTVSPropertyOp25
 70
     1
102
RTVSPropertyOp26
 70
     1
102
RTVSPropertyOp27
 70
     1
102
RTVSPropertyOp28
 70
     1
102
RTVSPropertyOp29
 70
     1
102
RTVSPropertyOp30
 70
     1
102
RTVSPropertyOp31
 70
     1
102
RTVSPropertyOp32
 70
     1
  0
XRECORD
  5
A5B
102
{ACAD_REACTORS
330
A5A
102
}
330
A5A
100
AcDbXrecord
280
     1
102
RTVSPropertyOp0
 70
     0
102
RTVSPropertyOp1
 70
     0
102
RTVSPropertyOp2
 70
     0
102
RTVSPropertyOp3
 70
     0
102
RTVSPropertyOp4
 70
     0
102
RTVSPropertyOp5
 70
     0
102
RTVSPropertyOp6
 70
     0
102
RTVSPropertyOp7
 70
     0
102
RTVSPropertyOp8
 70
     0
102
RTVSPropertyOp9
 70
     0
102
RTVSPropertyOp10
 70
     0
102
RTVSPropertyOp11
 70
     0
102
RTVSPropertyOp12
 70
     0
102
RTVSPropertyOp13
 70
     0
102
RTVSPropertyOp14
 70
     2
102
RTVSPropertyOp15
 70
     0
102
RTVSPropertyOp16
 70
     0
102
RTVSPropertyOp17
 70
     0
102
RTVSPropertyOp18
 70
     0
102
RTVSPropertyOp19
 70
     0
102
RTVSPropertyOp20
 70
     0
102
RTVSPropertyOp21
 70
     0
102
RTVSPropertyOp22
 70
     0
102
RTVSPropertyOp23
 70
     0
102
RTVSPropertyOp24
 70
     0
102
RTVSPropertyOp25
 70
     0
102
RTVSPropertyOp26
 70
     0
102
RTVSPropertyOp27
 70
     0
102
RTVSPropertyOp28
 70
     1
102
RTVSPropertyOp29
 70
     1
102
RTVSPropertyOp30
 70
     1
102
RTVSPropertyOp31
 70
     1
102
RTVSPropertyOp32
 70
     1
  0
XRECORD
  5
A39
102
{ACAD_REACTORS
330
A38
102
}
330
A38
100
AcDbXrecord
280
     1
102
RTVSPropertyOp0
 70
     1
102
RTVSPropertyOp1
 70
     1
102
RTVSPropertyOp2
 70
     1
102
RTVSPropertyOp3
 70
     1
102
RTVSPropertyOp4
 70
     1
102
RTVSPropertyOp5
 70
     1
102
RTVSPropertyOp6
 70
     1
102
RTVSPropertyOp7
 70
     1
102
RTVSPropertyOp8
 70
     1
102
RTVSPropertyOp9
 70
     1
102
RTVSPropertyOp10
 70
     1
102
RTVSPropertyOp11
 70
     1
102
RTVSPropertyOp12
 70
     1
102
RTVSPropertyOp13
 70
     1
102
RTVSPropertyOp14
 70
     1
102
RTVSPropertyOp15
 70
     1
102
RTVSPropertyOp16
 70
     1
102
RTVSPropertyOp17
 70
     1
102
RTVSPropertyOp18
 70
     1
102
RTVSPropertyOp19
 70
     1
102
RTVSPropertyOp20
 70
     1
102
RTVSPropertyOp21
 70
     1
102
RTVSPropertyOp22
 70
     1
102
RTVSPropertyOp23
 70
     1
102
RTVSPropertyOp24
 70
     1
102
RTVSPropertyOp25
 70
     1
102
RTVSPropertyOp26
 70
     1
102
RTVSPropertyOp27
 70
     1
102
RTVSPropertyOp28
 70
     1
102
RTVSPropertyOp29
 70
     1
102
RTVSPropertyOp30
 70
     1
102
RTVSPropertyOp31
 70
     1
102
RTVSPropertyOp32
 70
     1
  0
XRECORD
  5
A57
102
{ACAD_REACTORS
330
A56
102
}
330
A56
100
AcDbXrecord
280
     1
102
RTVSPropertyOp0
 70
     1
102
RTVSPropertyOp1
 70
     1
102
RTVSPropertyOp2
 70
     1
102
RTVSPropertyOp3
 70
     1
102
RTVSPropertyOp4
 70
     1
102
RTVSPropertyOp5
 70
     1
102
RTVSPropertyOp6
 70
     1
102
RTVSPropertyOp7
 70
     1
102
RTVSPropertyOp8
 70
     1
102
RTVSPropertyOp9
 70
     1
102
RTVSPropertyOp10
 70
     1
102
RTVSPropertyOp11
 70
     1
102
RTVSPropertyOp12
 70
     1
102
RTVSPropertyOp13
 70
     1
102
RTVSPropertyOp14
 70
     1
102
RTVSPropertyOp15
 70
     1
102
RTVSPropertyOp16
 70
     1
102
RTVSPropertyOp17
 70
     1
102
RTVSPropertyOp18
 70
     1
102
RTVSPropertyOp19
 70
     1
102
RTVSPropertyOp20
 70
     1
102
RTVSPropertyOp21
 70
     1
102
RTVSPropertyOp22
 70
     1
102
RTVSPropertyOp23
 70
     1
102
RTVSPropertyOp24
 70
     1
102
RTVSPropertyOp25
 70
     1
102
RTVSPropertyOp26
 70
     1
102
RTVSPropertyOp27
 70
     1
102
RTVSPropertyOp28
 70
     1
102
RTVSPropertyOp29
 70
     1
102
RTVSPropertyOp30
 70
     1
102
RTVSPropertyOp31
 70
     1
102
RTVSPropertyOp32
 70
     1
  0
XRECORD
  5
A55
102
{ACAD_REACTORS
330
A54
102
}
330
A54
100
AcDbXrecord
280
     1
102
RTVSPropertyOp0
 70
     1
102
RTVSPropertyOp1
 70
     1
102
RTVSPropertyOp2
 70
     1
102
RTVSPropertyOp3
 70
     1
102
RTVSPropertyOp4
 70
     1
102
RTVSPropertyOp5
 70
     1
102
RTVSPropertyOp6
 70
     1
102
RTVSPropertyOp7
 70
     1
102
RTVSPropertyOp8
 70
     1
102
RTVSPropertyOp9
 70
     1
102
RTVSPropertyOp10
 70
     1
102
RTVSPropertyOp11
 70
     1
102
RTVSPropertyOp12
 70
     1
102
RTVSPropertyOp13
 70
     1
102
RTVSPropertyOp14
 70
     1
102
RTVSPropertyOp15
 70
     1
102
RTVSPropertyOp16
 70
     1
102
RTVSPropertyOp17
 70
     1
102
RTVSPropertyOp18
 70
     1
102
RTVSPropertyOp19
 70
     1
102
RTVSPropertyOp20
 70
     1
102
RTVSPropertyOp21
 70
     1
102
RTVSPropertyOp22
 70
     1
102
RTVSPropertyOp23
 70
     1
102
RTVSPropertyOp24
 70
     1
102
RTVSPropertyOp25
 70
     1
102
RTVSPropertyOp26
 70
     1
102
RTVSPropertyOp27
 70
     1
102
RTVSPropertyOp28
 70
     1
102
RTVSPropertyOp29
 70
     1
102
RTVSPropertyOp30
 70
     1
102
RTVSPropertyOp31
 70
     1
102
RTVSPropertyOp32
 70
     1
  0
XRECORD
  5
A4F
102
{ACAD_REACTORS
330
A4E
102
}
330
A4E
100
AcDbXrecord
280
     1
102
RTVSPropertyOp0
 70
     1
102
RTVSPropertyOp1
 70
     1
102
RTVSPropertyOp2
 70
     1
102
RTVSPropertyOp3
 70
     1
102
RTVSPropertyOp4
 70
     1
102
RTVSPropertyOp5
 70
     1
102
RTVSPropertyOp6
 70
     1
102
RTVSPropertyOp7
 70
     1
102
RTVSPropertyOp8
 70
     1
102
RTVSPropertyOp9
 70
     1
102
RTVSPropertyOp10
 70
     1
102
RTVSPropertyOp11
 70
     1
102
RTVSPropertyOp12
 70
     1
102
RTVSPropertyOp13
 70
     1
102
RTVSPropertyOp14
 70
     1
102
RTVSPropertyOp15
 70
     1
102
RTVSPropertyOp16
 70
     1
102
RTVSPropertyOp17
 70
     1
102
RTVSPropertyOp18
 70
     1
102
RTVSPropertyOp19
 70
     1
102
RTVSPropertyOp20
 70
     1
102
RTVSPropertyOp21
 70
     1
102
RTVSPropertyOp22
 70
     1
102
RTVSPropertyOp23
 70
     1
102
RTVSPropertyOp24
 70
     1
102
RTVSPropertyOp25
 70
     1
102
RTVSPropertyOp26
 70
     1
102
RTVSPropertyOp27
 70
     1
102
RTVSPropertyOp28
 70
     1
102
RTVSPropertyOp29
 70
     1
102
RTVSPropertyOp30
 70
     1
102
RTVSPropertyOp31
 70
     1
102
RTVSPropertyOp32
 70
     1
  0
XRECORD
  5
A51
102
{ACAD_REACTORS
330
A50
102
}
330
A50
100
AcDbXrecord
280
     1
102
RTVSPropertyOp0
 70
     1
102
RTVSPropertyOp1
 70
     1
102
RTVSPropertyOp2
 70
     1
102
RTVSPropertyOp3
 70
     1
102
RTVSPropertyOp4
 70
     1
102
RTVSPropertyOp5
 70
     1
102
RTVSPropertyOp6
 70
     1
102
RTVSPropertyOp7
 70
     1
102
RTVSPropertyOp8
 70
     1
102
RTVSPropertyOp9
 70
     1
102
RTVSPropertyOp10
 70
     1
102
RTVSPropertyOp11
 70
     1
102
RTVSPropertyOp12
 70
     1
102
RTVSPropertyOp13
 70
     1
102
RTVSPropertyOp14
 70
     1
102
RTVSPropertyOp15
 70
     1
102
RTVSPropertyOp16
 70
     1
102
RTVSPropertyOp17
 70
     1
102
RTVSPropertyOp18
 70
     1
102
RTVSPropertyOp19
 70
     1
102
RTVSPropertyOp20
 70
     1
102
RTVSPropertyOp21
 70
     1
102
RTVSPropertyOp22
 70
     1
102
RTVSPropertyOp23
 70
     1
102
RTVSPropertyOp24
 70
     1
102
RTVSPropertyOp25
 70
     1
102
RTVSPropertyOp26
 70
     1
102
RTVSPropertyOp27
 70
     1
102
RTVSPropertyOp28
 70
     1
102
RTVSPropertyOp29
 70
     1
102
RTVSPropertyOp30
 70
     1
102
RTVSPropertyOp31
 70
     1
102
RTVSPropertyOp32
 70
     1
  0
XRECORD
  5
A3F
102
{ACAD_REACTORS
330
A3E
102
}
330
A3E
100
AcDbXrecord
280
     1
102
RTVSPropertyOp0
 70
     1
102
RTVSPropertyOp1
 70
     1
102
RTVSPropertyOp2
 70
     1
102
RTVSPropertyOp3
 70
     1
102
RTVSPropertyOp4
 70
     1
102
RTVSPropertyOp5
 70
     1
102
RTVSPropertyOp6
 70
     1
102
RTVSPropertyOp7
 70
     1
102
RTVSPropertyOp8
 70
     1
102
RTVSPropertyOp9
 70
     1
102
RTVSPropertyOp10
 70
     1
102
RTVSPropertyOp11
 70
     1
102
RTVSPropertyOp12
 70
     1
102
RTVSPropertyOp13
 70
     1
102
RTVSPropertyOp14
 70
     1
102
RTVSPropertyOp15
 70
     1
102
RTVSPropertyOp16
 70
     1
102
RTVSPropertyOp17
 70
     1
102
RTVSPropertyOp18
 70
     1
102
RTVSPropertyOp19
 70
     1
102
RTVSPropertyOp20
 70
     1
102
RTVSPropertyOp21
 70
     1
102
RTVSPropertyOp22
 70
     1
102
RTVSPropertyOp23
 70
     1
102
RTVSPropertyOp24
 70
     1
102
RTVSPropertyOp25
 70
     1
102
RTVSPropertyOp26
 70
     1
102
RTVSPropertyOp27
 70
     1
102
RTVSPropertyOp28
 70
     1
102
RTVSPropertyOp29
 70
     1
102
RTVSPropertyOp30
 70
     1
102
RTVSPropertyOp31
 70
     1
102
RTVSPropertyOp32
 70
     1
  0
XRECORD
  5
A4B
102
{ACAD_REACTORS
330
A4A
102
}
330
A4A
100
AcDbXrecord
280
     1
102
RTVSPropertyOp0
 70
     1
102
RTVSPropertyOp1
 70
     1
102
RTVSPropertyOp2
 70
     1
102
RTVSPropertyOp3
 70
     1
102
RTVSPropertyOp4
 70
     1
102
RTVSPropertyOp5
 70
     1
102
RTVSPropertyOp6
 70
     1
102
RTVSPropertyOp7
 70
     1
102
RTVSPropertyOp8
 70
     1
102
RTVSPropertyOp9
 70
     1
102
RTVSPropertyOp10
 70
     1
102
RTVSPropertyOp11
 70
     1
102
RTVSPropertyOp12
 70
     1
102
RTVSPropertyOp13
 70
     1
102
RTVSPropertyOp14
 70
     1
102
RTVSPropertyOp15
 70
     1
102
RTVSPropertyOp16
 70
     1
102
RTVSPropertyOp17
 70
     1
102
RTVSPropertyOp18
 70
     1
102
RTVSPropertyOp19
 70
     1
102
RTVSPropertyOp20
 70
     1
102
RTVSPropertyOp21
 70
     1
102
RTVSPropertyOp22
 70
     1
102
RTVSPropertyOp23
 70
     1
102
RTVSPropertyOp24
 70
     1
102
RTVSPropertyOp25
 70
     1
102
RTVSPropertyOp26
 70
     1
102
RTVSPropertyOp27
 70
     1
102
RTVSPropertyOp28
 70
     1
102
RTVSPropertyOp29
 70
     1
102
RTVSPropertyOp30
 70
     1
102
RTVSPropertyOp31
 70
     1
102
RTVSPropertyOp32
 70
     1
  0
XRECORD
  5
A53
102
{ACAD_REACTORS
330
A52
102
}
330
A52
100
AcDbXrecord
280
     1
102
RTVSPropertyOp0
 70
     1
102
RTVSPropertyOp1
 70
     1
102
RTVSPropertyOp2
 70
     1
102
RTVSPropertyOp3
 70
     1
102
RTVSPropertyOp4
 70
     1
102
RTVSPropertyOp5
 70
     1
102
RTVSPropertyOp6
 70
     1
102
RTVSPropertyOp7
 70
     1
102
RTVSPropertyOp8
 70
     1
102
RTVSPropertyOp9
 70
     1
102
RTVSPropertyOp10
 70
     1
102
RTVSPropertyOp11
 70
     1
102
RTVSPropertyOp12
 70
     1
102
RTVSPropertyOp13
 70
     1
102
RTVSPropertyOp14
 70
     1
102
RTVSPropertyOp15
 70
     1
102
RTVSPropertyOp16
 70
     1
102
RTVSPropertyOp17
 70
     1
102
RTVSPropertyOp18
 70
     1
102
RTVSPropertyOp19
 70
     1
102
RTVSPropertyOp20
 70
     1
102
RTVSPropertyOp21
 70
     1
102
RTVSPropertyOp22
 70
     1
102
RTVSPropertyOp23
 70
     1
102
RTVSPropertyOp24
 70
     1
102
RTVSPropertyOp25
 70
     1
102
RTVSPropertyOp26
 70
     1
102
RTVSPropertyOp27
 70
     1
102
RTVSPropertyOp28
 70
     1
102
RTVSPropertyOp29
 70
     1
102
RTVSPropertyOp30
 70
     1
102
RTVSPropertyOp31
 70
     1
102
RTVSPropertyOp32
 70
     1
  0
ENDSEC
  0
EOF
